[ Сегодня на трекере фрилич! Идет свободное скачивание без начисления Download ]

Повар на колесах / Chef (Джон Фавро / Jon Favreau) [2014 г., Комедия, драма, семейный, WEBRip] Dub (Line)

 

Создавать темы 30-Июн-2014 02:08

-Повар на колесах / Chef-- Производство: США, Aldamisa Entertainment
Год выпуска: 2014 г.
Жанр: Комедия, драма, семейный
Продолжительность: 01:46:14
Мировая премьера: 28 апреля 2014, ...
Российская премьера: 5 июня 2014, «Top Film Distribution»
Перевод: Профессиональный (полное дублирование) [Чистый звук]
Режиссер: Джон Фавро / Jon Favreau-В ролях: Джон Фавро, Эмджей Энтони, София Вергара, Джон Легуизамо, Скарлетт Йоханссон, Оливер Платт, Бобби Каннавале, Дастин Хоффман, Роберт Дауни мл., Эми Седарис-Описание: Сюжет фильма разворачивается вокруг шеф-повара Карла Каспера, потерявшего работу в известном ресторане Лос-Анджелеса. Вместе с сыном и бывшим напарником Карл решает организовать сеть закусочных на колесах, чтобы отыскать потерянное кулинарное вдохновение и попутно наладить отношения с семьей.-Качество видео: WEB-DL
Контейнер: AVI
Видео кодек: XviD
Аудио кодек: AC3
Видео: XviD, 1761 Кбит/с, 720x304 (2.35:1), 25 fps, 0.322 bit/pixel
Аудио: 48 kHz, AC3, 2 ch, ~192 kbps
Cубтитры: отсутствуют

Media Info

General
Complete name : W:\Povar.na.Kolesah.2014.D.WEBRip.avi
Format : AVI
Format/Info : Audio Video Interleave
File size : 1.46 GiB
Duration : 1h 46mn
Overall bit rate : 1 964 Kbps
Writing application : VirtualDubMod 1.5.10.2 (build 2540/release)
Writing library : VirtualDubMod build 2540/release
Video
ID : 0
Format : MPEG-4 Visual
Format profile : Advanced [email protected]
Format settings, BVOP : Yes
Format settings, QPel : No
Format settings, GMC : No warppoints
Format settings, Matrix : Custom
Codec ID : XVID
Codec ID/Hint : XviD
Duration : 1h 46mn
Bit rate : 1 762 Kbps
Width : 720 pixels
Height : 304 pixels
Display aspect ratio : 2.35:1
Frame rate : 25.000 fps
Color space : YUV
Chroma subsampling : 4:2:0
Bit depth : 8 bits
Scan type : Progressive
Bits/(Pixel*Frame) : 0.322
Stream size : 1.31 GiB (90%)
Writing library : XviD 1.2.1 (UTC 2008-12-04)
Audio
ID : 1
Format : AC-3
Format/Info : Audio Coding 3
Mode extension : CM (complete main)
Codec ID : 2000
Duration : 1h 46mn
Bit rate mode : Constant
Bit rate : 192 Kbps
Channel(s) : 2 channels
Channel positions : Front: L R
Sampling rate : 48.0 KHz
Bit depth : 16 bits
Stream size : 146 MiB (10%)
Alignment : Split accross interleaves
Interleave, duration : 40 ms (1.00 video frame)
Interleave, preload duration : 500 ms

Скриншоты

Яндекс.Метрика
Рейтинг@Mail.ru