[ Сегодня на трекере фрилич! Идет свободное скачивание без начисления Download ]

ЧП. Чрезвычайное происшествие. Расследование. Левозащитники (2014.06.29) SATRip

 

Создавать темы 29-Июн-2014 20:44

- ЧП. Чрезвычайное происшествие. Расследование. Левозащитники (2014.06.29) SATRip - Режиссер / Телекомпания: НТВ
Оригинальное название: Чрезвычайное происшествие. Расследование
Год выпуска: 2014
Жанр: Телепередача
Описание:
«Чрезвычайное происшествие. Расследование» — это эксклюзивная информация из надежных источников. Документальные расследования, проводимые программой, затрагивают самые актуальные темы: организованную преступность и коррупцию, экономические преступления и терроризм. Зрителей ждут мнения участников событий, комментарии экспертов и версии правоохранительных органов.
В выпуске:
Как правозащитная деятельность становится источником доходов, а вчерашние мошенники — борцами за справедливость?
Почему у авторитетных людей возникли вопросы к Ольге Романовой, сколько стоит освободиться досрочно и как делают бизнес на заключенных?
«Левозащитники» — в программе «ЧП. Расследование».
Продолжительность: ~ 00:35:02
Видеокодек: XviD
Битрейт видео: ~1800 kb/s
Размер кадра: 720 x 448
Качество видео: SATRip
Аудиокодек: MP3, 2ch.
Битрейт аудио: 128 kb/s

MediaInfo

Формат : AVI
Формат/Информация : Audio Video Interleave
Размер файла : 486 Мбайт
Продолжительность : 35 м.
Общий поток : 1939 Кбит/сек
Библиотека кодирования : VirtualDub build 32817/release
Видео
Идентификатор : 0
Формат : MPEG-4 Visual
Профиль формата : Advanced [email protected]
Параметр BVOP формата : 2
Параметр QPel формата : Нет
Параметр GMC формата : Без точки перехода
Параметр матрицы формата : Default (MPEG)
Идентификатор кодека : XVID
Идентификатор кодека/Подсказка : XviD
Продолжительность : 35 м.
Битрейт : 1801 Кбит/сек
Ширина : 720 пикселей
Высота : 448 пикселей
Соотношение сторон : 1,607
Частота кадров : 25,000 кадров/сек
Цветовое пространство : YUV
Субдискретизация насыщенности : 4:2:0
Битовая глубина : 8 бит
Тип развёртки : Прогрессивная
Метод сжатия : С потерями
Бит/(Пиксели*Кадры) : 0.223
Размер потока : 451 Мбайт (93%)
Библиотека кодирования : XviD 1.2.1 (UTC 2008-12-04)
Аудио
Идентификатор : 1
Формат : MPEG Audio
Версия формата : Version 1
Профиль формата : Layer 3
Режим : Joint stereo
Идентификатор кодека : 55
Идентификатор кодека/Подсказка : MP3
Продолжительность : 35 м.
Вид битрейта : Постоянный
Битрейт : 128 Кбит/сек
Каналы : 2 канала
Частота : 48,0 КГц
Метод сжатия : С потерями
Размер потока : 32,1 Мбайт (7%)
Выравнивание : Разделение по промежуткам
Продолжительность промежутка : 40 мс. (1,00 видеокадр)
Время предзагрузки промежутка : 500 мс.

Скриншоты:

Яндекс.Метрика
Рейтинг@Mail.ru