[ Сегодня на трекере фрилич! Идет свободное скачивание без начисления Download ]

Цвет нации / (Леонид Парфенов) [2014 г., документальный, SATRip]

 

Создавать темы 24-Июн-2014 02:10

-Цвет нации-- Производство: Россия
Жанр: документальный
Год выпуска: 2014 г.
Продолжительность: 01:18:18
Перевод: Не требуется
Оригинальный аудиопоток: русский
Режиссер: Леонид Парфенов-Описание: Еще в начале ХХ века Сергей Михайлович Прокудин-Горский первым осознал исключительную миссию цветной фотосъемки: только фотография "в натуральных цветах" в полной мере сохранит облик того, что может быть утрачено в любой момент.
Он – не просто один из родоначальников мировой цветной фотографии, автор первых в Российской империи цветных открыток и издатель журнала "Фотограф-любитель".
Профессор поставил перед собой фантастическую цель: объездить и запечатлеть на фотокамеру всю Российскую империю, чтобы оставить потомкам полную "коллекцию достопримечательностей".
Результаты первых экспедиций – проекции цветных стеклянных пластин с изображениями дальних уголков империи – были показаны царю 3 мая 1909 года в Александровском дворце Царского села. Пораженный увиденным Николай II поручает поддержку проекта Прокудина-Горского министру путей сообщения. Профессору предоставлен служебный транспорт. Заручившись помощью царя, Прокудин-Горский запечатлел тысячи объектов на территории всей Российской империи.-Качество видео: SATRip
Контейнер: AVI
Видео кодек: XviD
Аудио кодек: AC3
Видео: XviD, 704x448, 25.00fps 1800kbps
Аудио: AC3, 48000Hz stereo 192kbps, 2 ch
Cубтитры: отсутствуют

Media Info

Format : AVI
Format/Info : Audio Video Interleave
File size : 1.09 GiB
Duration : 1h 18mn
Overall bit rate : 2 002 Kbps
Writing application : VirtualDubMod 1.5.10.3 | www.virtualdub-fr.org || (build 2550/release)
Writing library : VirtualDubMod build 2550/release
Video #0
ID : 0
Format : MPEG-4 Visual
Format profile : Advanced [email protected]
Format settings, BVOP : 2
Format settings, QPel : No
Format settings, GMC : No warppoints
Format settings, Matrix : Default (H.263)
Codec ID : XVID
Codec ID/Hint : XviD
Duration : 1h 18mn
Bit rate : 1 800 Kbps
Width : 704 pixels
Height : 448 pixels
Display aspect ratio : 16:10
Frame rate : 25.000 fps
Color space : YUV
Chroma subsampling : 4:2:0
Bit depth : 8 bits
Scan type : Progressive
Compression mode : Lossy
Bits/(Pixel*Frame) : 0.228
Stream size : 1 008 MiB (90%)
Writing library : XviD 1.2.1 (UTC 2008-12-04)
Audio #1
ID : 1
Format : AC-3
Format/Info : Audio Coding 3
Mode extension : CM (complete main)
Format settings, Endianness : Big
Codec ID : 2000
Duration : 1h 18mn
Bit rate mode : Constant
Bit rate : 192 Kbps
Channel count : 2 channels
Channel positions : Front: L R
Sampling rate : 48.0 KHz
Bit depth : 16 bits
Compression mode : Lossy
Stream size : 108 MiB (10%)
Alignment : Split accross interleaves
Interleave, duration : 40 ms (1.00 video frame)
Interleave, preload duration : 500 ms

Скриншоты

Яндекс.Метрика
Рейтинг@Mail.ru