Человек в железной маске / The Man in the Iron Mask (1998) BDRip [H.264/1080p-LQ]

 

Создавать темы 22-Июн-2014 03:29

-Человек в железной маске / The Man in the Iron Mask (1998) BDRip- Год выпуска: 1998
Производство: США, Франция / United Artists Corporation Ltd.
Жанр: Боевик, Приключения
Описание фильма:
Во времена блеска и отчаяния измученной Франции король Людовик XIV вовсю наслаждается прелестями жизни, пока вся его страна голодает. Людовик, уверенный в абсолютности собственной власти, опасается лишь одного человека, способного положить конец его царствованию, — приговоренного им к пожизненному заключению и закованного в железную маску.Но когда королевский эгоизм заходит слишком далеко, бывшие мушкетеры Атос, Портос и Арамис отваживаются спасти таинственного узника, который может стать единственной надеждой Франции на возрождение. Остается лишь вопрос: поможет ли им верный друг, славный д`Артаньян, — или будет драться против?..
Режиссер: Рэндалл Уоллес
Актеры: Леонардо ДиКаприо, Джереми Айронс, Джон Малкович, Жерар Депардье, Гэбриел Бирн, Анн Парийо, Жюдит Годреш, Эдвард Аттертон, Питер Сарсгаард, Хью Лори
Продолжительность: 02:12:15
Качество видео: BDRip 1080p
Перевод: Дублированный
Язык субтитров: Русский
Вид субтитров: Вшитые (Отключаемые)

Дата мировой премьеры: 13 марта 1998
Дата выхода DVD релиза: 28 августа 2008, «Двадцатый Век Фокс СНГ»
Дата выхода Blu-Ray релиза: 27 мая 2010, «Двадцатый Век Фокс СНГ»
Видеокодек: MPEG-4 AVC/H.264
Битрейт видео: ~ 7710 Кбит/сек
Размер кадра: 1920x1040
Аудио:
Аудио #1: AC3 5.1, 448 Кбит/сек - Дублированный
Аудио #2: AC3 5.1, 448 Кбит/сек - Оригинальная звуковая дорожка (Английский)

MediaInfo:

Общее
Уникальный идентификатор : 231108777550312132093022261095523469763 (0xADDDEE7767E099A098A15FBEB4D0C9C3)
Формат : Matroska
Версия формата : Version 2
Размер файла : 7,94 Гбайт
Продолжительность : 2 ч. 12 м.
Общий поток : 8595 Кбит/сек
Дата кодирования : UTC 2013-03-29 06:17:43
Программа кодирования : mkvmerge v5.3.0 ('I could have danced') built on Feb 9 2012 10:38:07
Библиотека кодирования : libebml v1.2.3 + libmatroska v1.3.0
Видео
Идентификатор : 1
Формат : AVC
Формат/Информация : Advanced Video Codec
Профиль формата : [url=mailto:[email protected]][email protected][/url]
Параметр CABAC формата : Да
Параметр ReFrames формата : 4 кадра
Идентификатор кодека : V_MPEG4/ISO/AVC
Продолжительность : 2 ч. 12 м.
Битрейт : 7710 Кбит/сек
Ширина : 1920 пикселей
Высота : 1040 пикселей
Соотношение сторон : 1,85:1
Режим частоты кадров : Постоянный
Частота кадров : 23,976 кадра/сек
Цветовое пространство : YUV
Субдискретизация насыщенности : 4:2:0
Битовая глубина : 8 бит
Тип развёртки : Прогрессивная
Бит/(Пиксели*Кадры) : 0.161
Размер потока : 6,95 Гбайт (88%)
Библиотека кодирования : x264 core 129 r2230 1cffe9f
Настройки программы : cabac=1 / ref=4 / deblock=1:-1:-1 / analyse=0x3:0x133 / me=umh / subme=10 / psy=1 / psy_rd=1.00:0.00 / mixed_ref=1 / me_range=32 / chroma_me=1 / trellis=2 / 8x8dct=1 / cqm=0 / deadzone=21,11 / fast_pskip=0 / chroma_qp_offset=-2 / threads=6 / lookahead_threads=1 / sliced_threads=0 / nr=0 / decimate=1 / interlaced=0 / bluray_compat=0 / constrained_intra=0 / bframes=10 / b_pyramid=2 / b_adapt=2 / b_bias=0 / direct=3 / weightb=1 / open_gop=0 / weightp=2 / keyint=230 / keyint_min=22 / scenecut=40 / intra_refresh=0 / rc=2pass / mbtree=0 / bitrate=7710 / ratetol=2.0 / qcomp=1.00 / qpmin=0 / qpmax=51 / qpstep=4 / cplxblur=20.0 / qblur=0.5 / ip_ratio=1.40 / pb_ratio=1.30 / aq=1:1.00
Язык : English
Default : Да
Forced : Нет
Основные цвета : BT.709
Характеристики трансфера : BT.709
Коэффициенты матрицы : BT.709
Аудио #1
Идентификатор : 2
Формат : AC-3
Формат/Информация : Audio Coding 3
Расширение режима : CM (complete main)
Параметр Endianness формата : Big
Идентификатор кодека : A_AC3
Продолжительность : 2 ч. 12 м.
Вид битрейта : Постоянный
Битрейт : 448 Кбит/сек
Каналы : 6 каналов
Расположение каналов : Front: L C R, Side: L R, LFE
Частота : 48,0 КГц
Битовая глубина : 16 бит
Метод сжатия : С потерями
Размер потока : 424 Мбайт (5%)
Заголовок : Дубляж
Язык : Russian
Default : Да
Forced : Нет
Аудио #2
Идентификатор : 3
Формат : AC-3
Формат/Информация : Audio Coding 3
Расширение режима : CM (complete main)
Параметр Endianness формата : Big
Идентификатор кодека : A_AC3
Продолжительность : 2 ч. 12 м.
Вид битрейта : Постоянный
Битрейт : 448 Кбит/сек
Каналы : 6 каналов
Расположение каналов : Front: L C R, Side: L R, LFE
Частота : 48,0 КГц
Битовая глубина : 16 бит
Метод сжатия : С потерями
Размер потока : 424 Мбайт (5%)
Язык : English
Default : Нет
Forced : Нет
Текст #1
Идентификатор : 4
Формат : VobSub
Режим смешивания : zlib
Идентификатор кодека : S_VOBSUB
Идентификатор кодека/Информация : The same subtitle format used on DVDs
Язык : Russian
Default : Нет
Forced : Нет
Текст #2
Идентификатор : 5
Формат : UTF-8
Идентификатор кодека : S_TEXT/UTF8
Идентификатор кодека/Информация : UTF-8 Plain Text
Язык : Russian
Default : Нет
Forced : Нет
Меню
00:00:00.000 : en:00:00:00.000
00:01:55.115 : en:00:01:55.115
00:06:21.214 : en:00:06:21.214
00:09:37.076 : en:00:09:37.076
00:17:06.817 : en:00:17:06.817
00:18:47.168 : en:00:18:47.168
00:22:16.126 : en:00:22:16.126
00:28:07.895 : en:00:28:07.895
00:31:36.895 : en:00:31:36.895
00:35:30.628 : en:00:35:30.628
00:39:39.586 : en:00:39:39.586
00:41:22.980 : en:00:41:22.980
00:46:56.522 : en:00:46:56.522
00:51:47.229 : en:00:51:47.229
00:53:57.776 : en:00:53:57.776
00:58:18.704 : en:00:58:18.704
01:01:28.894 : en:01:01:28.894
01:04:56.017 : en:01:04:56.017
01:10:24.971 : en:01:10:24.971
01:11:31.996 : en:01:11:31.996
01:14:56.158 : en:01:14:56.158
01:21:14.661 : en:01:21:14.661
01:24:04.706 : en:01:24:04.706
01:26:25.806 : en:01:26:25.806
01:30:20.290 : en:01:30:20.290
01:34:21.030 : en:01:34:21.030
01:36:59.272 : en:01:36:59.272
01:39:46.939 : en:01:39:46.939
01:43:03.052 : en:01:43:03.052
01:45:40.876 : en:01:45:40.876
01:47:13.427 : en:01:47:13.427
01:49:44.286 : en:01:49:44.286
01:53:20.168 : en:01:53:20.168
01:55:27.879 : en:01:55:27.879
02:01:08.011 : en:02:01:08.011
02:05:11.129 : en:02:05:11.129
Скриншоты: Время раздачи: 10:00-24:00
Яндекс.Метрика
Рейтинг@Mail.ru