[ Сегодня на трекере фрилич! Идет свободное скачивание без начисления Download ]

С кем переспать?!! / The To Do List (Мэгги Кэри / Maggie Carey) [2013 г., Комедия, HDRip] Dub (студия "Пифагор")

 

Создавать темы 20-Июн-2014 16:39

-С кем переспать?!! / The To Do List-«Отличница и ЭТО сделает на ПЯТЬ»- Производство: США, 3 Arts Entertainment, Mark Gordon Company, The
Год выпуска: 2013 г.
Жанр: Комедия
Продолжительность: 01:44:53
Мировая премьера: 26 июля 2013
Российская премьера: 25 июля 2013, «West»
Перевод: Профессиональный (полное дублирование) [студия "Пифагор"]-Режиссер: Мэгги Кэри / Maggie Carey
В ролях: Обри Пласа, Джонни Симмонс, Билл Хейдер, Алиа Шокат, Сара Стил, Скотт Портер, Рэйчел Билсон, Кристофер Минц-Плассе, Энди Сэмберг, Дональд Гловер-Описание: Действие комедии происходит в 90-е 20 века в американском пригороде. Выпускница школы пишет свой «список дел», которые надо завершить до перехода в колледж. Все пункты списка непристойны и направлены на обретение сексуального опыта. Но девушка мало понимает, как получить заветный опыт, и попадает в смешные ситуации.-Качество видео: HDRip
Контейнер: AVI
Видео кодек: XviD
Аудио кодек: AC3
Видео: 720x400 (1.80:1), 23.976 fps, XviD build 50 ~1425 kbps avg, 0.21 bit/pixel
Аудио: 48 kHz, AC3 Dolby Digital, 3/2 (L,C,R,l,r) + LFE ch, ~448 kbps
Cубтитры: отсутствуют

Media Info

General
Complete name : D:\S.kem.Perespat.2013.D.HDRip.1400MB.avi
Format : AVI
Format/Info : Audio Video Interleave
File size : 1.37 GiB
Duration : 1h 43mn
Overall bit rate : 1 883 Kbps
Writing application : VirtualDubMod 1.5.10.2 (build 2540/release)
Writing library : VirtualDubMod build 2540/release
Video
ID : 0
Format : MPEG-4 Visual
Format profile : Advanced [email protected]
Format settings, BVOP : 2
Format settings, QPel : No
Format settings, GMC : No warppoints
Format settings, Matrix : Custom
Codec ID : XVID
Codec ID/Hint : XviD
Duration : 1h 43mn
Bit rate : 1 426 Kbps
Width : 720 pixels
Height : 400 pixels
Display aspect ratio : 16:9
Frame rate : 23.976 fps
Color space : YUV
Chroma subsampling : 4:2:0
Bit depth : 8 bits
Scan type : Progressive
Compression mode : Lossy
Bits/(Pixel*Frame) : 0.206
Stream size : 1.03 GiB (76%)
Writing library : XviD 1.2.1 (UTC 2008-12-04)
Audio
ID : 1
Format : AC-3
Format/Info : Audio Coding 3
Mode extension : CM (complete main)
Format settings, Endianness : Big
Codec ID : 2000
Duration : 1h 43mn
Bit rate mode : Constant
Bit rate : 448 Kbps
Channel(s) : 6 channels
Channel positions : Front: L C R, Side: L R, LFE
Sampling rate : 48.0 KHz
Bit depth : 16 bits
Compression mode : Lossy
Stream size : 333 MiB (24%)
Alignment : Split accross interleaves
Interleave, duration : 42 ms (1.00 video frame)
Interleave, preload duration : 500 ms

Скриншоты

Яндекс.Метрика
Рейтинг@Mail.ru