Игра престолов / Game of Thrones (Сезон 4 / Полный / Серии: 10 из 10) (Алан Тейлор / Alan Taylor ...) [2014г., Фэнтези, Драма, Приключения, ..., HDTVRip] MVO (LostFilm)

 

Создавать темы 18-Июн-2014 12:18

Игра престолов / Game of Thrones
«Победа или смерть»
- Русское название: Игра престолов
Оригинальное название: Game of Thrones
Страна: США, Великобритания
Год выпуска: 2014
Жанр: Фэнтези, Драма, Приключения ...-Озвучка: Fox
Подготовка релиза: Студия LostFilm
Перевод: Многоголосый закадровый, профессиональный-Премьера (мир): 17 апреля 2011, ...
Премьера (РФ): 8 сентября 2011
Релиз на DVD: 14 февраля 2013, «CP Дистрибуция», ...
Релиз на Blu-Ray: 3 апреля 2014, «CP Дистрибуция», ...-Режиссер: Алан Тейлор / Alan Taylor, Алекс Грейвз / Алекс Грейвз, Даниэль Минахан / Daniel Minahan ...
В главных ролях: Лина Хиди, Питер Динклэйдж, Мишель Фэйрли, Эмилия Кларк, Кит Харингтон, Шон Бин, Николай Костер-Вальдау, Айэйн Глен, Марк Эдди, Эйден Гиллен ...
Роли дублировали: Нина Тобилевич, Пётр Иващенко, Ольга Зубкова, Владимир Герасимов, Александр Новиков ...-Описание фильма:
В Вестеросе наступила осень — предвестник долгой зимы, когда Белые ходоки пробудятся ото сна. Но Стена и её защитники позабыты: три короля претендуют на Железный трон и два верховных лорда провозгласили себя королями над своими землями. Никто из них не желает заключить союзы, и каждый считает свое право на трон священным. И воцарился над миром кровавый хаос войны. И началась великая битва, в которой наградою победителю станет Железный Трон Семи Королевств. Страшные настали времена — времена отваги и отмщения, интриги и магии. Ныне дева повстречает безумца, а брат занесет меч на брата. Ныне убитые восстанут — и пойдут тропою Тьмы. Ныне вонзится холодная сталь в холодные сердца. Ныне грядет предначертанная пророчеством Битва Королей…-Сезон: 4
Серии: 10 из 10 серий
Продолжительность: ~ 01:00:00 мин серия-Качество видео: HDTVRip
Формат: AVI
Видеокодек: XviD
Аудиокодек: Mp3
Видео: MPEG-4 Visual at 1472 Кбит/сек: 720 x 400 (1.800) at 23.976 fps, 0.213 Бит/Пиксели
Аудио Rus: MPEG Audio at 192 Кбит/сек: 2 канала, 48,0 КГц |LostFilm|
-

Список серий:

  • Два меча (Two Swords)
  • Лев и Роза (The Lion and the Rose)
  • Разрушительница оков (Breaker of Chains)
  • Верный клятве (Oathkeeper)
  • Первое из его имен (First of His Name)
  • Законы богов и людей (The Laws of Gods and Men)
  • Пересмешник (Mockingbird)
  • Гора и Змей (The Mountain and the Viper)
  • Дозорные на Стене (The watchers on the Wall)
  • Дети (The Children)
-

MediaInfo:

Общее
Полное имя                               : E:\_Сериалы\_NeW_\Game.of.Thrones.S04E01.rus.LostFilm.TV.avi
Формат                                   : AVI
Формат/Информация                        : Audio Video Interleave
Размер файла                             : 721 Мбайт
Продолжительность                        : 1 ч. 0 м.
Режим общего битрейта                    : Переменный
Общий поток                              : 1672 Кбит/сек
Программа кодирования                    : Nandub v1.0rc2
Библиотека кодирования                   : Nandub build 1853/release
Видео
Идентификатор                            : 0
Формат                                   : MPEG-4 Visual
Профиль формата                          : [email protected]
Параметр BVOP формата                    : Нет
Параметр QPel формата                    : Нет
Параметр GMC формата                     : Без точки перехода
Параметр матрицы формата                 : Default (H.263)
Идентификатор кодека                     : XVID
Идентификатор кодека/Подсказка           : XviD
Продолжительность                        : 1 ч. 0 м.
Битрейт                                  : 1472 Кбит/сек
Ширина                                   : 720 пикселей
Высота                                   : 400 пикселей
Соотношение сторон                       : 16:9
Частота кадров                           : 23,976 кадра/сек
Цветовое пространство                    : YUV
Субдискретизация насыщенности            : 4:2:0
Битовая глубина                          : 8 бит
Тип развёртки                            : Прогрессивная
Метод сжатия                             : С потерями
Бит/(Пиксели*Кадры)                      : 0.213
Размер потока                            : 634 Мбайт (88%)
Библиотека кодирования                   : XviD 1.2.1 (UTC 2008-12-04)
Аудио
Идентификатор                            : 1
Формат                                   : MPEG Audio
Версия формата                           : Version 1
Профиль формата                          : Layer 3
Режим                                    : Joint stereo
Расширение режима                        : MS Stereo
Идентификатор кодека                     : 55
Идентификатор кодека/Подсказка           : MP3
Продолжительность                        : 1 ч. 0 м.
Вид битрейта                             : Переменный
Битрейт                                  : 192 Кбит/сек
Каналы                                   : 2 канала
Частота                                  : 48,0 КГц
Метод сжатия                             : С потерями
Размер потока                            : 80,7 Мбайт (11%)
Выравнивание                             : Соединение по промежуткам
Продолжительность промежутка             : 24  мс. (0,58 видеокадр)
Время предзагрузки промежутка            : 418  мс.
Библиотека кодирования                   : LAME3.97b
Настройки программы                      : -m j -V 4 -q 3 -lowpass 18.6 --abr 192
-

Скриншот c названием фильма

-Скриншоты:
-

Еще

-Добавлена десятая, заключительная, серия четвертого сезона
Пятый сезон ожидается в апреле 2015 года.
Яндекс.Метрика
Рейтинг@Mail.ru