[ Сегодня на трекере фрилич! Идет свободное скачивание без начисления Download ]

Венера в мехах / La Vénus à la fourrure (Роман Полански / Roman Polanski) [2013 г., Драма, HDRip] Dub (Чистый звук)

 

Создавать темы 16-Июн-2014 20:52

-Венера в мехах / La Vénus à la fourrure-- Производство: Франция, Польша / R.P. Productions, A.S. Films, Monolith Films
Год выпуска: 2013 г.
Жанр: Драма
Продолжительность: 01:35:45
Мировая премьера: 25 мая 2013
Российская премьера: 15 мая 2014, «West»
Перевод: Профессиональный (полное дублирование) [Чистый звук]
Режиссер: Роман Полански / Roman Polanski-В ролях: Эмманюэль Сенье, Матье Амальрик-Описание: Весь день Тома проводил прослушивания, выбирая актрису для пьесы по знаменитому роману Леопольда фон Захера-Мазоха «Венера в мехах». Режиссер в отчаянии, пока не появляется Ванда — настоящий сгусток энергии, разнузданная и развязная. Она воплощает собой все, что Тома ненавидит: вульгарна, взбалмошна и не остановится ни перед чем, чтобы получить роль. Вдруг все, что так ненавидит Тома, начинает ему нравиться — актриса отлично подготовилась к прослушиванию. Удивление сменяется влечением, а затем и одержимостью этой женщиной.-
Качество видео: HDRip
Контейнер: AVI
Видео кодек: XviD
Аудио кодек: AC3
Видео: 720x304 (2.37:1), 23.976 fps, XviD build 50 ~1585 kbps avg, 0.30 bit/pixel
Аудио: 48 kHz, AC3 Dolby Digital, 3/2 (L,C,R,l,r) + LFE ch, ~448 kbps
Cубтитры: отсутствуют

Media Info

General
Complete name : D:\Venera.v.Mehah.2013.D.HDRip.1400MB.avi
Format : AVI
Format/Info : Audio Video Interleave
File size : 1.37 GiB
Duration : 1h 35mn
Overall bit rate : 2 043 Kbps
Writing application : VirtualDubMod 1.5.10.2 (build 2540/release)
Writing library : VirtualDubMod build 2540/release
Video
ID : 0
Format : MPEG-4 Visual
Format profile : Advanced [email protected]
Format settings, BVOP : 2
Format settings, QPel : No
Format settings, GMC : No warppoints
Format settings, Matrix : Custom
Codec ID : XVID
Codec ID/Hint : XviD
Duration : 1h 35mn
Bit rate : 1 586 Kbps
Width : 720 pixels
Height : 304 pixels
Display aspect ratio : 2.35:1
Frame rate : 23.976 fps
Color space : YUV
Chroma subsampling : 4:2:0
Bit depth : 8 bits
Scan type : Progressive
Compression mode : Lossy
Bits/(Pixel*Frame) : 0.302
Stream size : 1.06 GiB (78%)
Writing library : XviD 1.2.1 (UTC 2008-12-04)
Audio
ID : 1
Format : AC-3
Format/Info : Audio Coding 3
Mode extension : CM (complete main)
Format settings, Endianness : Big
Codec ID : 2000
Duration : 1h 35mn
Bit rate mode : Constant
Bit rate : 448 Kbps
Channel(s) : 6 channels
Channel positions : Front: L C R, Side: L R, LFE
Sampling rate : 48.0 KHz
Bit depth : 16 bits
Compression mode : Lossy
Stream size : 307 MiB (22%)
Alignment : Split accross interleaves
Interleave, duration : 42 ms (1.00 video frame)
Interleave, preload duration : 500 ms

Скриншоты

Яндекс.Метрика
Рейтинг@Mail.ru