[ Сегодня на трекере фрилич! Идет свободное скачивание без начисления Download ]

Геймер / Gamer (2009) BDrip 720p [hand made60fps]

 

Создавать темы 16-Июн-2014 11:23

Геймер / Gamer--
  • Год выпуска: 2009
  • Страна: США
  • Жанр: Фантастика, Триллер, Боевик
  • Продолжительность: 01:34:44
  • Перевод: Дублированный
  • Субтитры: Отсутствуют
  • В ролях: Джерард Батлер , Эмбер Валлетта , Майкл С. Холл , Кира Седжвик , Логан Лерман , Элисон Ломан , Терри Крюс , Рэмси Мур , Лудакрис , Аарон Йу
  • Режиссёр: Марк Невелдайн, Брайан Тейлор

    Каждую неделю миллионы людей во всём мире в режиме онлайн следят за ним и сотней других смертников, которые участвуют в битвах игры. По мнению группы мятежников, которая противостоит Кастлу, его игра — это высокотехнологичное рабство, а он является тем критическим элементом, который необходимо уничтожить. Кэйбл/Тиллман оказался между двумя мощными противоборствующими силами, которые не заинтересованы в том, чтобы он выжил. С каждым шагом, за которым наблюдают миллионы, Джон Тилман сражается, чтобы получить свободу, восстановить свою личность и низвергнуть систему, которая его заключила в тюрьму.--
  • Качество: BDrip 720p [hand made60fps]
  • Формат: MKV
  • Видео кодек: MPEG-4 AVC
  • Аудио кодек: DTS
  • Видео: H.264, ~12000 Кбит/сек, 1280*688, 59,880 кадров/сек
  • Аудио: DTS, 1510 Кбит/сек, 6 каналов, 48,0 КГц
--

MediaInfo

Общее
Уникальный идентификатор : 224355132679019744080281638250176012486 (0xA8C93A10E5FF594D89372487AC2760C6)
Полное имя : Z:\Фильмы\Геймер.mkv
Формат : Matroska
Версия формата : Version 4 / Version 2
Размер файла : 8,94 Гбайт
Продолжительность : 1 ч. 34 м.
Общий поток : 13,5 Мбит/сек
Название фильма : R.G. HQCLUB | 720p BDRip by DaniLch
Дата кодирования : UTC 2014-01-20 15:20:44
Программа кодирования : mkvmerge v6.7.0 ('Back to the Ground') 64bit built on Jan 8 2014 15:10:52
Библиотека кодирования : libebml v1.3.0 + libmatroska v1.4.1
Видео
Идентификатор : 1
Формат : AVC
Формат/Информация : Advanced Video Codec
Профиль формата : [email protected]
Параметр CABAC формата : Да
Параметр ReFrames формата : 9 кадров
Идентификатор кодека : V_MPEG4/ISO/AVC
Продолжительность : 1 ч. 34 м.
Битрейт : 12,0 Мбит/сек
Ширина : 1280 пикселей
Высота : 688 пикселей
Соотношение сторон : 1,85:1
Режим частоты кадров : Постоянный
Частота кадров : 59,880 кадров/сек
Частота кадров в оригинале : 59,940 кадров/сек
Цветовое пространство : YUV
Субдискретизация насыщенности : 4:2:0
Битовая глубина : 8 бит
Тип развёртки : Прогрессивная
Бит/(Пиксели*Кадры) : 0.228
Размер потока : 7,76 Гбайт (87%)
Библиотека кодирования : x264 core 133 r2334 a3ac64b
Настройки программы : cabac=1 / ref=9 / deblock=1:-1:-1 / analyse=0x3:0 / me=umh / subme=9 / psy=1 / psy_rd=1.00:0.00 / mixed_ref=0 / me_range=24 / chroma_me=1 / trellis=1 / 8x8dct=1 / cqm=0 / deadzone=21,11 / fast_pskip=1 / chroma_qp_offset=-2 / threads=6 / lookahead_threads=1 / sliced_threads=0 / nr=0 / decimate=1 / interlaced=0 / bluray_compat=0 / constrained_intra=0 / bframes=6 / b_pyramid=2 / b_adapt=2 / b_bias=0 / direct=3 / weightb=1 / open_gop=0 / weightp=2 / keyint=250 / keyint_min=25 / scenecut=40 / intra_refresh=0 / rc_lookahead=40 / rc=2pass / mbtree=1 / bitrate=12000 / ratetol=1.0 / qcomp=0.60 / qpmin=0 / qpmax=69 / qpstep=4 / cplxblur=20.0 / qblur=0.5 / ip_ratio=1.40 / aq=1:1.00
Default : Да
Forced : Нет
Аудио
Идентификатор : 2
Формат : DTS
Формат/Информация : Digital Theater Systems
Режим : 16
Параметр Endianness формата : Big
Идентификатор кодека : A_DTS
Продолжительность : 1 ч. 34 м.
Вид битрейта : Постоянный
Битрейт : 1510 Кбит/сек
Каналы : 6 каналов
Расположение каналов : Front: L C R, Side: L R, LFE
Частота : 48,0 КГц
Битовая глубина : 16 бит
Метод сжатия : С потерями
Задержка видео : 22 мс.
Размер потока : 1023 Мбайт (11%)
Заголовок : DTS 5.1 @ 1510 kbps - Дубляж
Язык : Russian
Default : Нет
Forced : Нет
Меню
00:00:00.000 : en:00:00:00.000
00:04:51.291 : en:00:04:51.291
00:08:09.989 : en:00:08:09.989
00:16:29.322 : en:00:16:29.322
00:20:08.416 : en:00:20:08.416
00:27:33.569 : en:00:27:33.569
00:33:27.297 : en:00:33:27.297
00:38:17.795 : en:00:38:17.795
00:42:05.523 : en:00:42:05.523
00:45:56.295 : en:00:45:56.295
00:52:38.864 : en:00:52:38.864
00:57:49.299 : en:00:57:49.299
01:02:16.733 : en:01:02:16.733
01:07:39.722 : en:01:07:39.722
01:11:27.158 : en:01:11:27.158
01:19:12.206 : en:01:19:12.206

Скриншоты:

Яндекс.Метрика
Рейтинг@Mail.ru