Сотня / The 100 / Сезон: 1 / полный / Серии: 13 из 13 (Дин Уайт / Dean White, ...) [2014 г., фантастика, ..., WEB-DLRip] MVO (LostFilm)

 

Создавать темы 15-Июн-2014 15:44

-Сотня / The 100-- Производство: США
Жанр: фантастика, ...
Год выпуска: 2014 г.-Мировая премьера: 19 марта 2014-Озвучка: Студия |LostFilm|
Перевод: Многоголосый закадровый, профессиональный-Режиссер: Дин Уайт / Dean White, Джон Беринг / John Behring, Милан Чейлов / Milan Cheylov, ...-В ролях: Элиза Тейлор-Коттер, Мари Авгеропулос, Сачин Сахель, Линдси Морган, Женевьев Бюкнер, Ричард Хэрмон, Джарод Джозеф, Челси Рейст, Крис Браунинг, Джош Ссеттуба ...-Описание:
События в сериале начинают разворачиваться по прошествии девяносто семи лет после того как всю цивилизацию уничтожила страшная атомная война.
Высоко в космосе на орбите Земли летает большой космический корабль, именно здесь находятся те, кто выжил после страшной катастрофы. Они единственные кто пережил этот ужасный катаклизм который устроило человечество. Именно с этого последнего пристанища людей на Землю отправляют космический челнок на котором находятся сто малолетних преступников…-Сезон: 1
Серии: 13 из 13 серий
Продолжительность: ~ 00:41:00 мин серия-Качество видео: WEB-DLRip
Контейнер: AVI
Видео кодек: XviD
Аудио кодек: MP3
Видео: MPEG-4 Visual at 1652 Кбит/сек: 720 x 400 (1.800) at 23.976 fps: 0.24 Бит/Пиксели
Аудио Rus: MPEG Audio at 192 Кбит/сек: 2 канала, 48,0 КГц |LostFilm|
Cубтитры: отсутствуют
- -

Список серий:

  • Пилот (Pilot)
  • Выжить на Земле (Earth Skills)
  • Умереть на Земле (Earth Kills)
  • Закон Мерфи (Murphy's Law)
  • Последний луч сумерек (Twilight's Last Gleaming)
  • Ради сестры (His Sister's Keeper)
  • Под давлением (Contents Under Pressure)
  • Однодневное путешествие (Day Trip)
  • День единства (Unity Day)
  • Я стал Смертью (I Am Become Death)
  • Тишина (The Calm)
  • Мы - земляне: часть 1 (We Are Grounders: Part 1)
  • Мы - земляне: часть 2 (We Are Grounders: Part 2)

Media Info

Общее
Полное имя                               : E:\_Сериалы\_NeW_\The.Hundred.S01E01.rus.LostFilm.TV.avi
Формат                                   : AVI
Формат/Информация                        : Audio Video Interleave
Размер файла                             : 550 Мбайт
Продолжительность                        : 41 м.
Режим общего битрейта                    : Переменный
Общий поток                              : 1851 Кбит/сек
Программа кодирования                    : Nandub v1.0rc2
Библиотека кодирования                   : Nandub build 1853/release
Видео
Идентификатор                            : 0
Формат                                   : MPEG-4 Visual
Профиль формата                          : [email protected]
Параметр BVOP формата                    : Нет
Параметр QPel формата                    : Нет
Параметр GMC формата                     : Без точки перехода
Параметр матрицы формата                 : Default (H.263)
Идентификатор кодека                     : XVID
Идентификатор кодека/Подсказка           : XviD
Продолжительность                        : 41 м.
Битрейт                                  : 1652 Кбит/сек
Ширина                                   : 720 пикселей
Высота                                   : 400 пикселей
Соотношение сторон                       : 16:9
Частота кадров                           : 23,976 кадра/сек
Цветовое пространство                    : YUV
Субдискретизация насыщенности            : 4:2:0
Битовая глубина                          : 8 бит
Тип развёртки                            : Прогрессивная
Метод сжатия                             : С потерями
Бит/(Пиксели*Кадры)                      : 0.239
Размер потока                            : 491 Мбайт (89%)
Библиотека кодирования                   : XviD 1.2.1 (UTC 2008-12-04)
Аудио
Идентификатор                            : 1
Формат                                   : MPEG Audio
Версия формата                           : Version 1
Профиль формата                          : Layer 3
Режим                                    : Joint stereo
Идентификатор кодека                     : 55
Идентификатор кодека/Подсказка           : MP3
Продолжительность                        : 41 м.
Вид битрейта                             : Переменный
Битрейт                                  : 192 Кбит/сек
Каналы                                   : 2 канала
Частота                                  : 48,0 КГц
Метод сжатия                             : С потерями
Размер потока                            : 55,4 Мбайт (10%)
Выравнивание                             : Соединение по промежуткам
Продолжительность промежутка             : 24  мс. (0,58 видеокадр)
Время предзагрузки промежутка            : 523  мс.
Библиотека кодирования                   : LAME3.97b
Настройки программы                      : -m j -V 4 -q 3 -lowpass 18.6 --abr 192

Скриншот c названием фильма

Скриншоты

ЕщЕ:

-
-Добавлена тринадцатая, заключительная, серия первого сезона
Яндекс.Метрика
Рейтинг@Mail.ru