[ Сегодня на трекере фрилич! Идет свободное скачивание без начисления Download ]

Враг / Enemy (Дени Вильнёв / Denis Villeneuve) [2013 г., Триллер, детектив, BDRip, 720p] DVO (qwerty & R.A.I.M.) + VO (ХихиДок) + Sub (Rus, Eng) + Original (Eng)

 

Создавать темы 14-Июн-2014 16:07

-Враг / Enemy-«Опасайся встречи с самим собой...»- Производство: Канада, Испания, Rhombus Media, Roxbury Pictures, Mecanismo Films
Год выпуска: 2013 г.
Жанр: Триллер, детектив
Продолжительность: 01:30:52
Мировая премьера: 8 сентября 2013
Российская премьера: 26 июня 2014, «Каравелла DDC»
Перевод: Любительский (двухголосый, закадровый) [qwerty & R.A.I.M.]
Перевод 2: Любительский (одноголосый, закадровый) [ХихиДок]
Оригинальный аудиопоток: английский-Режиссер: Дени Вильнёв / Denis Villeneuve
В ролях: Джейк Джилленхол, Мелани Лоран, Сара Гадон, Изабелла Росселлини, Джошуа Пиис, Тим Пост, Кедар Браун, Дэррил Динн, Миша Хайстэд, Меган Манн-Описание: Чтобы хоть как-то развеять свою депрессию, разведенный учитель истории Тертулиано Максимо Афонсо берет в прокате видеокассету с комедией «Упорный охотник подстрелит дичь». Фильм никак не впечатляет Тертулиано, и он ложится спать. Ночью его будят звуки из гостиной — оказывается, он забыл выключить пленку и видеомагнитофон заново проигрывает фильм. И тут Тертулиано обнаруживает, что исполнитель одной из эпизодических ролей выглядит в точности так, как он сам пять лет назад. Герой решает во что бы то ни стало найти своего двойника. Поиски оборачиваются настоящим наваждением, путешествием в самое сердце метафизической тьмы…-Качество видео: BDRip
Контейнер: MKV
Стандарт разрешения: 720p
Видео кодек: H.264
Аудио кодек: AC3 / DTS
Видео: 1280x534x532 (2.40:1), 5 365 Kbps, 23.976 fps, 0.327 bit/pix
Аудио: AC3, 384 Kbps, 6 ch, 48.0 KHz [Rus, DVO]
Аудио #2: AC3, 192 Kbps, 2 ch, 48.0 KHz [Rus, VO]
Аудио #3: DTS, 1 509 Kbps, 6 ch, 48.0 KHz [Eng, Original]
Cубтитры: Russian [notabenoid], English
Дополнительно: Сохранены оригинальные чаптеры как на Blu-Ray.

Media Info

General
Unique ID : 236169245996327300039572427574835656631 (0xB1AC8AD2E994B1DDA92343209C73B7B7)
Complete name : D:\Enemy.2013.Blu.Ray.720p.mkv
Format : Matroska
Format version : Version 4 / Version 2
File size : 4.73 GiB
Duration : 1h 30mn
Overall bit rate : 7 452 Kbps
Encoded date : UTC 2014-06-12 08:16:50
Writing application : mkvmerge v7.0.0 ('Where We Going') 64bit built on Jun 9 2014 15:16:27
Writing library : libebml v1.3.0 + libmatroska v1.4.1
Video
ID : 1
Format : AVC
Format/Info : Advanced Video Codec
Format profile : [email protected]
Format settings, CABAC : Yes
Format settings, ReFrames : 11 frames
Codec ID : V_MPEG4/ISO/AVC
Duration : 1h 30mn
Bit rate : 5 365 Kbps
Width : 1 280 pixels
Height : 534 pixels
Display aspect ratio : 2.40:1
Frame rate mode : Constant
Frame rate : 23.976 fps
Color space : YUV
Chroma subsampling : 4:2:0
Bit depth : 8 bits
Scan type : Progressive
Bits/(Pixel*Frame) : 0.327
Stream size : 3.31 GiB (70%)
Writing library : x264 core 142 r2431 ac76440
Encoding settings : cabac=1 / ref=11 / deblock=1:-3:-3 / analyse=0x3:0x113 / me=umh / subme=10 / psy=1 / psy_rd=1.00:0.05 / mixed_ref=1 / me_range=32 / chroma_me=1 / trellis=2 / 8x8dct=1 / cqm=0 / deadzone=21,11 / fast_pskip=0 / chroma_qp_offset=-2 / threads=18 / lookahead_threads=1 / sliced_threads=0 / nr=0 / decimate=1 / interlaced=0 / bluray_compat=0 / constrained_intra=0 / bframes=4 / b_pyramid=2 / b_adapt=2 / b_bias=0 / direct=3 / weightb=1 / open_gop=0 / weightp=2 / keyint=250 / keyint_min=23 / scenecut=40 / intra_refresh=0 / rc=2pass / mbtree=0 / bitrate=5365 / ratetol=1.0 / qcomp=0.70 / qpmin=0 / qpmax=69 / qpstep=4 / cplxblur=20.0 / qblur=0.5 / ip_ratio=1.40 / pb_ratio=1.30 / aq=2:0.90
Language : English
Default : Yes
Forced : No
Audio #1
ID : 2
Format : AC-3
Format/Info : Audio Coding 3
Mode extension : CM (complete main)
Format settings, Endianness : Big
Codec ID : A_AC3
Duration : 1h 30mn
Bit rate mode : Constant
Bit rate : 384 Kbps
Channel(s) : 6 channels
Channel positions : Front: L C R, Side: L R, LFE
Sampling rate : 48.0 KHz
Bit depth : 16 bits
Compression mode : Lossy
Stream size : 250 MiB (5%)
Title : qwerty & R.A.I.M.
Language : Russian
Default : Yes
Forced : Yes
Audio #2
ID : 3
Format : AC-3
Format/Info : Audio Coding 3
Mode extension : CM (complete main)
Format settings, Endianness : Big
Codec ID : A_AC3
Duration : 1h 30mn
Bit rate mode : Constant
Bit rate : 192 Kbps
Channel(s) : 2 channels
Channel positions : Front: L R
Sampling rate : 48.0 KHz
Bit depth : 16 bits
Compression mode : Lossy
Stream size : 125 MiB (3%)
Title : ХиХиДок
Language : Russian
Default : No
Forced : No
Audio #3
ID : 4
Format : DTS
Format/Info : Digital Theater Systems
Mode : 16
Format settings, Endianness : Big
Codec ID : A_DTS
Duration : 1h 30mn
Bit rate mode : Constant
Bit rate : 1 509 Kbps
Channel(s) : 6 channels
Channel positions : Front: L C R, Side: L R, LFE
Sampling rate : 48.0 KHz
Bit depth : 24 bits
Compression mode : Lossy
Stream size : 981 MiB (20%)
Language : English
Default : No
Forced : No
Text #1
ID : 5
Format : UTF-8
Codec ID : S_TEXT/UTF8
Codec ID/Info : UTF-8 Plain Text
Title : notabenoid
Language : Russian
Default : No
Forced : No
Text #2
ID : 6
Format : UTF-8
Codec ID : S_TEXT/UTF8
Codec ID/Info : UTF-8 Plain Text
Language : English
Default : No
Forced : No
Menu
00:00:00.000 : en:00:00:00.000
00:04:57.589 : en:00:04:57.589
00:09:20.393 : en:00:09:20.393
00:15:45.778 : en:00:15:45.778
00:26:24.708 : en:00:26:24.708
00:30:58.565 : en:00:30:58.565
00:35:43.600 : en:00:35:43.600
00:42:11.779 : en:00:42:11.779
00:48:55.683 : en:00:48:55.683
00:52:51.043 : en:00:52:51.043
00:55:15.979 : en:00:55:15.979
00:59:19.639 : en:00:59:19.639
01:06:33.072 : en:01:06:33.072
01:10:08.579 : en:01:10:08.579
01:15:10.881 : en:01:15:10.881
01:23:17.326 : en:01:23:17.326

Скриншоты

Яндекс.Метрика
Рейтинг@Mail.ru