Полицейская история 2013 / Police story (Jing cha gu shi 2013) (Дин Шэн / Ding Sheng) [2013 г., криминал, драма, триллер, боевик, BDRip, 720p] AVO (Визгунов, Дольский) + original (Ch) + Sub (Eng)

 

Создавать темы 04-Июн-2014 02:13

Полицейская история 2013 / Police story (Jing cha gu shi 2013) Год выпуска: 2013
Производство: Китай, Гонконг / China Vision Group, Wanda Media Co.
Жанр: криминал, драма, триллер, боевик
Продолжительность: 01:50:07
Перевод: Авторский (одноголосый, закадровый) Визгунов
Перевод 2: Авторский (одноголосый, закадровый) Дольский
Оригинальный аудиопоток: китайский
Субтитры: английские
Режиссер: Дин Шэн / Ding Sheng
В ролях: Джеки Чан, Лю Е, Тянь Цзин, Бо Хуан, Юй Жун Гуан, Александр Байли, Макс Хуан, Джеймс Лоджа, Андреас Нгуйен
Описание: История начинается с того, что посетители паба оказываются взятыми в заложники. Среди посетителей есть офицер полиции Вэнь Чжун и его непослушная дочь Мяомяо. Человек, удерживающий всех в заложниках — владелец паба, который таким образом пытается добиться освобождения из тюрьмы одного преступника…
Качество видео: BDRip
Контейнер: MKV
Стандарт разрешения: 720p
Видео кодек: H.264
Аудио кодек: DTS
Видео: MPEG-4 AVC, 6291 Кбит/с, 1280х544 (2.35:1), 24 fps, 0.255 bit / pix
Аудио : 48 kHz, DTS, 6 ch, 1536 Кбит/с - Визгунов
Аудио 2: 48 kHz, DTS, 6 ch, 1536 Кбит/с - Дольский
Аудио 3: 48 kHz, DTS, 6 ch, 1536 Кбит/с - Китайский
Формат субтитров: softsub (SRT)

Media Info

General
Complete name : W:\Jing.cha.gu.shi.2013.720p.BluRay.2xRus.Chi.Subs-iNK.mkv
Format : Matroska
File size : 8.32 GiB
Duration : 1h 50mn
Overall bit rate : 10.8 Mbps
Encoded date : UTC 2014-06-02 07:39:33
Writing application : mkvmerge v6.9.1 ('Blue Panther') 64bit built on Apr 18 2014 18:23:38
Writing library : libebml v1.3.0 + libmatroska v1.4.1
Video
ID : 1
Format : AVC
Format/Info : Advanced Video Codec
Format profile : [email protected]
Format settings, CABAC : Yes
Format settings, ReFrames : 12 frames
Muxing mode : Container [email protected]
Codec ID : V_MPEG4/ISO/AVC
Duration : 1h 50mn
Bit rate : 6 291 Kbps
Width : 1 280 pixels
Height : 544 pixels
Display aspect ratio : 2.35:1
Frame rate : 24.000 fps
Color space : YUV
Chroma subsampling : 4:2:0
Bit depth : 8 bits
Scan type : Progressive
Bits/(Pixel*Frame) : 0.376
Stream size : 4.67 GiB (56%)
Writing library : x264 core 133 r2334 a3ac64b
Encoding settings : cabac=1 / ref=12 / deblock=1:-3:-3 / analyse=0x3:0x113 / me=tesa / subme=10 / psy=1 / psy_rd=1.05:0.00 / mixed_ref=1 / me_range=24 / chroma_me=1 / trellis=2 / 8x8dct=1 / cqm=0 / deadzone=21,11 / fast_pskip=0 / chroma_qp_offset=-4 / threads=12 / lookahead_threads=1 / sliced_threads=0 / nr=0 / decimate=0 / interlaced=0 / bluray_compat=0 / constrained_intra=0 / bframes=6 / b_pyramid=2 / b_adapt=2 / b_bias=0 / direct=3 / weightb=1 / open_gop=0 / weightp=2 / keyint=250 / keyint_min=24 / scenecut=40 / intra_refresh=0 / rc=2pass / mbtree=0 / bitrate=6291 / ratetol=1.0 / qcomp=0.70 / qpmin=0 / qpmax=69 / qpstep=4 / cplxblur=20.0 / qblur=0.5 / ip_ratio=1.20 / pb_ratio=1.30 / aq=1:0.80
Audio #1
ID : 2
Format : DTS
Format/Info : Digital Theater Systems
Codec ID : A_DTS
Duration : 1h 50mn
Bit rate mode : Constant
Bit rate : 1 510 Kbps
Channel(s) : 6 channels
Channel positions : Front: L C R, Side: L R, LFE
Sampling rate : 48.0 KHz
Bit depth : 16 bits
Stream size : 1.16 GiB (14%)
Title : DTS 5.1 @ 1536 kbps - AVO S.Vizgunov
Language : Russian
Audio #2
ID : 3
Format : DTS
Format/Info : Digital Theater Systems
Codec ID : A_DTS
Duration : 1h 50mn
Bit rate mode : Constant
Bit rate : 1 510 Kbps
Channel(s) : 6 channels
Channel positions : Front: L C R, Side: L R, LFE
Sampling rate : 48.0 KHz
Bit depth : 16 bits
Stream size : 1.16 GiB (14%)
Title : DTS 5.1 @ 1536 kbps - AVO A.Dolskiy
Language : Russian
Audio #3
ID : 4
Format : DTS
Format/Info : Digital Theater Systems
Codec ID : A_DTS
Duration : 1h 50mn
Bit rate mode : Constant
Bit rate : 1 510 Kbps
Channel(s) : 6 channels
Channel positions : Front: L C R, Side: L R, LFE
Sampling rate : 48.0 KHz
Bit depth : 24 bits
Stream size : 1.16 GiB (14%)
Language : Chinese
Text
ID : 5
Format : UTF-8
Codec ID : S_TEXT/UTF8
Codec ID/Info : UTF-8 Plain Text
Menu
00:00:00.000 : en:00:00:00.000
00:09:49.000 : en:00:09:49.000
00:19:52.000 : en:00:19:52.000
00:28:14.625 : en:00:28:14.625
00:37:56.000 : en:00:37:56.000
00:47:41.000 : en:00:47:41.000
00:56:41.000 : en:00:56:41.000
01:05:11.000 : en:01:05:11.000
01:15:06.000 : en:01:15:06.000
01:25:26.000 : en:01:25:26.000
01:34:59.000 : en:01:34:59.000
01:43:00.000 : en:01:43:00.000

Скриншоты

Яндекс.Метрика
Рейтинг@Mail.ru