Демоны да Винчи / Da Vinci's Demons (Сезон 2 / полный / серии: 10 из 10) (Майкл Дж. Бассетт / Michael J. Bassett ...) [2014 г., фэнтези, драма, детектив, ..., HDTVRip] MVO (LostFilm)

 

Создавать темы 03-Июн-2014 09:27

Демоны да Винчи / Da Vinci's Demons
«History Is a Lie»
- Русское название: Демоны да Винчи
Оригинальное название: Da Vinci's Demons
Страна: США
Год выпуска: 2013
Жанр: фэнтези, драма, детектив, приключения, история, ...-Озвучка: Студия LostFilm
Перевод: Многоголосый закадровый, профессиональный-Режиссер: Майкл Дж. Бассетт / Michael J. Bassett, Дэвид С. Гойер / David S. Goyer, Джэми Пэйн / Jamie Payne ...
В главных ролях: Мистер Джулиан Гиллард, Том Райли, Эллиот Кауэн, Лара Пулвер, Лора Хэддок, Блейк Ритсон, Грегг Чиллин, Том Бейтман, Эрос Влахос, Йен Пири, ...-Описание фильма:
В мире, где мысль и вера находятся под контролем, один человек борется за то, чтобы сделать знания доступными для всех.
Не рассказанная история трагичной жизни Леонардо да Винчи раскрывает портрет молодого человека, которого мучает дар гения. Он - еретик, жаждущий раскрыть ложь религии. Бунтарь, стремящийся низвергнуть элитарное общество. Незаконнорожденный сын, требующий от своего отца признания его прав.
Он оказывается посреди разразившегося урагана страстей, который спал веками. Внутри конфликта между правдой и ложью, религией и интеллектом, прошлым и будущим. Его стремления используются против него противоборствующими силами того времени, вовлекая его в соблазнительную игру, в которой те, кто презирает его ум, нуждаются в нём больше всего.
Леонардо должен вступить в конфронтацию с теми, кто использует историю, чтобы скрыть истину. Вооружённый лишь собственным гением да Винчи в одиночку противостоит тьме как внутри, так и снаружи.
Перед лицом неопределённости будущего его поход за знаниями едва не становится для него погибелью, когда он переходит за грань своего здравомыслия. Да Винчи, словно в омут с головой, уходит в собственные гениальные идеи, воплотив которые, становится необоримой силой, вытаскивающей из темноты и поворачивающей к свету целую эпоху.
Его история становится зеркалом для нашего мира, зовущее всех нас на бой за свободное будущее.-Сезон: 2
Серии: 10 из 10 серий
Продолжительность: ~ 00:57:00 мин серия-Качество видео: HDTVRip
Контейнер: AVI
Видео кодек: XviD
Аудио кодек: MP3
Видео: MPEG-4 Visual at 1915 Кбит/сек, 720 x 400 (1.800) at 23.976 fps, 0.28 Бит/Пиксели
Аудио: MPEG Audio at 192 Кбит/сек, 2 канала, 48,0 КГц
Cубтитры: отсутствуют
- -

Список серий:

  • Кровь человеческая (The Blood of Man)
  • Братья по крови (The Blood of Brothers)
  • Путешествие проклятых (The Voyage of the Damned)
  • Край света (The Ends of the Earth)
  • Солнце и Луна (The Sun and the Moon)
  • Лиана мертвых (The Rope of the Dead)
  • Небесный свод (The Vault of Heaven)
  • Падение с небес (The Fall From Heaven)
  • Враги человечества (The Enemies of Man)
  • Грехи Дедала (The Sins of Daedalus)
-

MediaInfo:

Общее
Полное имя                               : E:\_Сериалы\_NeW_\Da.Vincis.Demons.S02E01.rus.LostFilm.TV.avi
Формат                                   : AVI
Формат/Информация                        : Audio Video Interleave
Размер файла                             : 874 Мбайт
Продолжительность                        : 57 м.
Режим общего битрейта                    : Переменный
Общий поток                              : 2114 Кбит/сек
Программа кодирования                    : Nandub v1.0rc2
Библиотека кодирования                   : Nandub build 1853/release
Видео
Идентификатор                            : 0
Формат                                   : MPEG-4 Visual
Профиль формата                          : [email protected]
Параметр BVOP формата                    : Нет
Параметр QPel формата                    : Нет
Параметр GMC формата                     : Без точки перехода
Параметр матрицы формата                 : Default (H.263)
Идентификатор кодека                     : XVID
Идентификатор кодека/Подсказка           : XviD
Продолжительность                        : 57 м.
Битрейт                                  : 1915 Кбит/сек
Ширина                                   : 720 пикселей
Высота                                   : 400 пикселей
Соотношение сторон                       : 16:9
Частота кадров                           : 23,976 кадра/сек
Цветовое пространство                    : YUV
Субдискретизация насыщенности            : 4:2:0
Битовая глубина                          : 8 бит
Тип развёртки                            : Прогрессивная
Метод сжатия                             : С потерями
Бит/(Пиксели*Кадры)                      : 0.277
Размер потока                            : 792 Мбайт (91%)
Библиотека кодирования                   : XviD 1.2.1 (UTC 2008-12-04)
Аудио
Идентификатор                            : 1
Формат                                   : MPEG Audio
Версия формата                           : Version 1
Профиль формата                          : Layer 3
Режим                                    : Joint stereo
Идентификатор кодека                     : 55
Идентификатор кодека/Подсказка           : MP3
Продолжительность                        : 57 м.
Вид битрейта                             : Переменный
Битрейт                                  : 192 Кбит/сек
Каналы                                   : 2 канала
Частота                                  : 48,0 КГц
Метод сжатия                             : С потерями
Размер потока                            : 76,9 Мбайт (9%)
Выравнивание                             : Соединение по промежуткам
Продолжительность промежутка             : 24  мс. (0,58 видеокадр)
Время предзагрузки промежутка            : 541  мс.
Библиотека кодирования                   : LAME3.97b
Настройки программы                      : -m j -V 4 -q 3 -lowpass 18.6 --abr 192
-

Скриншот c названием фильма

-Скриншоты:
-

Еще

-Добавлена десятая, заключительная, серия второго сезона
Третий сезон ожидается в марте 2015 года.
Яндекс.Метрика
Рейтинг@Mail.ru