Сын Божий / Son of God (Кристофер Спенсер / Christopher Spencer) [2014 г., Драма, BDRip-AVC] VO (qwerty) + Sub (Rus)

 

Создавать темы 01-Июн-2014 17:13

-Сын Божий / Son of God- Производство: США / Hearst Entertainment Productions, LightWorkers Media
Год выпуска: 2014 г.
Жанр: Драма
Продолжительность: 02:18:13
Мировая премьера: 28 февраля 2014-Перевод: Любительский (одноголосый, закадровый) [qwerty]-Режиссер: Кристофер Спенсер / Christopher Spencer
В ролях: Диего Моргадо, Амбер Роуз Ривах, Роума Дауни, Себастьян Кнапп, Дарвин Шоу, Пол Нопс, Дарси Дэвид Ринтул, Гари Оливер, Стюарт Скудамор, Нонсо Анози, Конан Стивенс, Джасса Ахлувалиа, Лэнгли Кирквуд-Описание: История Иисуса Христа от Рождения, до Его учения, Распятия и Вознесения.- -Качество видео: BDRip-AVC
Контейнер: MKV
Видео кодек: H.264
Аудио кодек: AC3
Видео: 1024x432 (2.40:1), 2 001 Kbps, 23.976 fps, 0.189 bit/pix
Аудио: 256 Kbps, 6 ch, 48.0 KHz [Rus, VO]
Cубтитры: русские
Навигация по главам: Есть

Media Info

General
Unique ID : 197766830604515913582884289598502874251 (0x94C8819036C25577A939BA47AE4E2C8B)
Complete name : C:\Users\Ivan\Desktop\Son.of.God.2014.VO.BDRip-AVC.mkv
Format : Matroska
Format version : Version 4 / Version 2
File size : 2.18 GiB
Duration : 2h 18mn
Overall bit rate : 2 258 Kbps
Movie name : http://pirat.ca
Encoded date : UTC 2014-06-01 10:23:51
Writing application : mkvmerge v6.9.1 ('Blue Panther') 64bit built on Apr 18 2014 18:23:38
Writing library : libebml v1.3.0 + libmatroska v1.4.1
Video
ID : 1
Format : AVC
Format/Info : Advanced Video Codec
Format profile : [email protected]
Format settings, CABAC : Yes
Format settings, ReFrames : 7 frames
Codec ID : V_MPEG4/ISO/AVC
Duration : 2h 18mn
Bit rate : 2 001 Kbps
Width : 1 024 pixels
Height : 432 pixels
Display aspect ratio : 2.40:1
Frame rate mode : Constant
Frame rate : 23.976 fps
Color space : YUV
Chroma subsampling : 4:2:0
Bit depth : 8 bits
Scan type : Progressive
Bits/(Pixel*Frame) : 0.189
Stream size : 1.89 GiB (87%)
Title : Божий Сын / Son of God
Writing library : x264 core 130 r2273 b3065e6
Encoding settings : cabac=1 / ref=7 / deblock=1:-1:-1 / analyse=0x3:0x133 / me=umh / subme=10 / psy=1 / psy_rd=1.00:0.15 / mixed_ref=0 / me_range=32 / chroma_me=1 / trellis=2 / 8x8dct=1 / cqm=0 / deadzone=21,11 / fast_pskip=0 / chroma_qp_offset=-3 / threads=12 / lookahead_threads=2 / sliced_threads=0 / nr=0 / decimate=1 / interlaced=0 / bluray_compat=0 / constrained_intra=0 / bframes=7 / b_pyramid=2 / b_adapt=2 / b_bias=0 / direct=3 / weightb=1 / open_gop=0 / weightp=2 / keyint=250 / keyint_min=23 / scenecut=40 / intra_refresh=0 / rc_lookahead=50 / rc=2pass / mbtree=1 / bitrate=2001 / ratetol=1.0 / qcomp=0.60 / qpmin=0 / qpmax=69 / qpstep=4 / cplxblur=20.0 / qblur=0.5 / ip_ratio=1.40 / aq=1:1.00
Language : English
Default : Yes
Forced : No
Audio
ID : 2
Format : AC-3
Format/Info : Audio Coding 3
Mode extension : CM (complete main)
Format settings, Endianness : Big
Codec ID : A_AC3
Duration : 2h 18mn
Bit rate mode : Constant
Bit rate : 256 Kbps
Channel(s) : 6 channels
Channel positions : Front: L C R, Side: L R, LFE
Sampling rate : 48.0 KHz
Bit depth : 16 bits
Compression mode : Lossy
Stream size : 253 MiB (11%)
Title : VO [qwerty]
Language : Russian
Default : Yes
Forced : No
Text
ID : 3
Format : UTF-8
Codec ID : S_TEXT/UTF8
Codec ID/Info : UTF-8 Plain Text
Language : Russian
Default : Yes
Forced : No
Menu
00:00:00.000 : en:00:00:00.000
00:02:42.496 : en:00:02:42.412
00:04:37.652 : en:00:04:37.486
00:07:39.960 : en:00:07:39.876
00:12:54.316 : en:00:12:54.190
00:17:53.282 : en:00:17:53.197
00:21:31.000 : en:00:21:30.915
00:22:48.160 : en:00:22:48.075
00:25:31.699 : en:00:25:31.613
00:27:20.474 : en:00:27:20.389
00:31:43.196 : en:00:31:43.110
00:36:24.227 : en:00:36:24.140
00:39:07.098 : en:00:39:06.970
00:43:51.549 : en:00:43:51.462
00:47:10.790 : en:00:47:10.703
00:50:26.111 : en:00:50:26.023
00:54:30.188 : en:00:54:30.100
00:56:23.927 : en:00:56:23.797
00:59:18.519 : en:00:59:18.430
01:02:31.378 : en:01:02:31.289
01:08:59.433 : en:01:08:59.344
01:13:03.886 : en:01:13:03.796
01:16:17.288 : en:01:16:17.198
01:21:48.995 : en:01:21:48.904
01:24:14.015 : en:01:24:13.924
01:28:03.495 : en:01:28:03.278
01:29:59.486 : en:01:29:59.394
01:35:30.650 : en:01:35:30.558
01:39:38.440 : en:01:39:38.347
01:44:03.288 : en:01:44:03.195
01:48:44.903 : en:01:48:44.810
01:54:08.978 : en:01:54:08.884
02:02:08.499 : en:02:02:08.404
02:05:21.859 : en:02:05:21.764
02:09:47.250 : en:02:09:47.154
02:14:19.481 : en:02:14:19.260

log x.264

avs [info]: 1024x432p 1:1 @ 2500000/104271 fps (cfr)
x264 [info]: using SAR=1/1
x264 [info]: using cpu capabilities: MMX2 SSE2Fast SSSE3 SSE4.2 AVX
x264 [info]: profile High, level 4.1
x264 [info]: frame I:1747 Avg QP:15.32 size: 74730
x264 [info]: frame P:56714 Avg QP:18.72 size: 20000
x264 [info]: frame B:140380 Avg QP:21.77 size: 5760
x264 [info]: consecutive B-frames: 5.0% 6.0% 13.3% 49.4% 11.0% 10.7% 1.7% 2.8%
x264 [info]: mb I I16..4: 10.5% 64.2% 25.3%
x264 [info]: mb P I16..4: 3.0% 17.9% 2.7% P16..4: 46.8% 12.2% 10.0% 1.3% 0.5% skip: 5.6%
x264 [info]: mb B I16..4: 0.4% 2.1% 0.4% B16..8: 40.2% 9.3% 2.4% direct: 6.0% skip:39.3% L0:38.0% L1:48.3% BI:13.8%
x264 [info]: 8x8 transform intra:74.3% inter:64.1%
x264 [info]: direct mvs spatial:97.2% temporal:2.8%
x264 [info]: coded y,uvDC,uvAC intra: 76.5% 65.4% 29.7% inter: 23.9% 18.5% 0.9%
x264 [info]: i16 v,h,dc,p: 33% 14% 11% 42%
x264 [info]: i8 v,h,dc,ddl,ddr,vr,hd,vl,hu: 14% 9% 9% 8% 11% 13% 11% 12% 12%
x264 [info]: i4 v,h,dc,ddl,ddr,vr,hd,vl,hu: 14% 8% 5% 8% 14% 15% 12% 12% 12%
x264 [info]: i8c dc,h,v,p: 43% 25% 20% 12%
x264 [info]: Weighted P-Frames: Y:6.7% UV:2.4%
x264 [info]: ref P L0: 58.6% 9.6% 16.0% 5.5% 4.1% 2.9% 2.7% 0.6% 0.0%
x264 [info]: ref B L0: 83.8% 9.2% 3.6% 1.9% 1.0% 0.5%
x264 [info]: ref B L1: 94.7% 5.3%
x264 [info]: kb/s:2000.07
x264 [total]: encoded 198841 frames, 24.14 fps, 2000.07 kb/s

Скриншоты

Яндекс.Метрика
Рейтинг@Mail.ru