Последний рубеж / Homefront (Гэри Фледер / Gary Fleder) [2013 г., Боевик, криминал, BDRip-AVC] Dub (Лицензия) + AVO (А. Гаврилов) + Original (Eng) + Sub (Rus, Eng)

 

Создавать темы 31-Май-2014 06:11

-Последний рубеж / Homefront-- Производство: США, Millennium Films
Год выпуска: 2013 г.
Жанр: Боевик, криминал
Продолжительность: 01:40:35
Мировая премьера: 27 ноября 2013
Российская премьера: 28 ноября 2013
Перевод 1: Профессиональный (полное дублирование)
Перевод 2: Авторский (одноголосый, закадровый)
Оригинальный аудиопоток: английский
Режиссер: Гэри Фледер / Gary Fleder-В ролях: Джейсон Стэйтем, Джеймс Франко, Вайнона Райдер, Кейт Босворт, Рашель Лефевр, Фрэнк Грилло, Клэнси Браун-Описание: Фил Брокер — бывший агент из отдела борьбы с наркотиками. Фил переезжает в небольшой город вместе с семьей в надежде забыть прошлое. Но он узнает, что город только со стороны кажется тихим и спокойным местом, на самом деле он кишит насилием, наркотиками, а всем этим заправляет злодей по кличке Аллигатор…-
Качество видео: BDRip-AVC
Контейнер: MKV
Видео кодек: H.264
Аудио кодек: AC3
Видео: 1056x440 (2,40:1), 23.976 fps, 1960 kbps avg, 0.176 bit/pixel
Аудио #1: 48 kHz, AC3 Dolby Digital, 3/2 (L,C,R,l,r) + LFE ch, ~384 kbps - Лицензионный дубляж
Аудио #2: 48 kHz, AC3 Dolby Digital, 3/2 (L,C,R,l,r) + LFE ch, ~384 kbps - Андрей Гаврилов
Аудио #3: 48 kHz, AC3 Dolby Digital, 3/2 (L,C,R,l,r) + LFE ch, ~384 kbps - Оригинальная английская аудио дорожка
Cубтитры: русские, английские
Формат субтитров: softsub (SRT)

Дополнительная информация об аудио дорожке с авторским переводом

За перевод Гаврилова большое спасибо пользователям форума hdtracker.org:
Denis2251 ,-Джосс-, KpucTo161 ,_MyxAmoP_, SavineX, rydanes, dunhill200, Tehnar, chef&chef, milocerd0v, fly32, foxlight, Luka69, Role, nimph, ASUKEVICH, Loki, therox, Brown15, Диммон,Pain_70, carter64, edsz,shtift, Wolf_Larsen, Letyoha3, Xerman13, Rolly Tyler ,feldeger, Iron Man, GaryH, dwser, Hattori, Hanzo, audiolubitel.

Media Info

General
Unique ID : 246002507766122675811529916246436448846 (0xB9125C0F688A4D7F8930BDBFB1398A4E)
Format : Matroska
Format version : Version 4 / Version 2
File size : 2.19 GiB
Duration : 1h 40mn
Overall bit rate : 3 111 Kbps
Movie name : Последний рубеж / Homefront
Encoded date : UTC 2014-05-29 10:56:05
Writing application : mkvmerge v6.9.1 ('Blue Panther') 64bit built on Apr 18 2014 18:23:38
Writing library : libebml v1.3.0 + libmatroska v1.4.1
Video
ID : 1
Format : AVC
Format/Info : Advanced Video Codec
Format profile : [email protected]
Format settings, CABAC : Yes
Format settings, ReFrames : 10 frames
Codec ID : V_MPEG4/ISO/AVC
Duration : 1h 40mn
Bit rate : 1 960 Kbps
Width : 1 056 pixels
Height : 440 pixels
Display aspect ratio : 2.40:1
Frame rate mode : Constant
Frame rate : 23.976 fps
Color space : YUV
Chroma subsampling : 4:2:0
Bit depth : 8 bits
Scan type : Progressive
Bits/(Pixel*Frame) : 0.176
Stream size : 1.33 GiB (61%)
Title : Homefront
Writing library : x264 core 142 r2431 ac76440
Encoding settings : cabac=1 / ref=10 / deblock=1:-3:-3 / analyse=0x3:0x133 / me=umh / subme=10 / psy=1 / psy_rd=1.00:0.10 / mixed_ref=1 / me_range=48 / chroma_me=1 / trellis=2 / 8x8dct=1 / cqm=0 / deadzone=21,11 / fast_pskip=0 / chroma_qp_offset=-3 / threads=3 / lookahead_threads=1 / sliced_threads=0 / nr=0 / decimate=1 / interlaced=0 / bluray_compat=0 / constrained_intra=0 / bframes=5 / b_pyramid=2 / b_adapt=2 / b_bias=0 / direct=3 / weightb=1 / open_gop=0 / weightp=2 / keyint=240 / keyint_min=22 / scenecut=40 / intra_refresh=0 / rc_lookahead=40 / rc=2pass / mbtree=1 / bitrate=1960 / ratetol=1.0 / qcomp=0.60 / qpmin=10 / qpmax=51 / qpstep=4 / cplxblur=20.0 / qblur=0.5 / ip_ratio=1.40 / aq=1:1.00
Language : English
Default : Yes
Forced : No
Audio #1
ID : 2
Format : AC-3
Format/Info : Audio Coding 3
Mode extension : CM (complete main)
Format settings, Endianness : Big
Codec ID : A_AC3
Duration : 1h 40mn
Bit rate mode : Constant
Bit rate : 384 Kbps
Channel count : 6 channels
Channel positions : Front: L C R, Side: L R, LFE
Sampling rate : 48.0 KHz
Bit depth : 16 bits
Compression mode : Lossy
Stream size : 276 MiB (12%)
Title : Dub
Language : Russian
Default : Yes
Forced : No
Audio #2
ID : 3
Format : AC-3
Format/Info : Audio Coding 3
Mode extension : CM (complete main)
Format settings, Endianness : Big
Codec ID : A_AC3
Duration : 1h 40mn
Bit rate mode : Constant
Bit rate : 384 Kbps
Channel count : 6 channels
Channel positions : Front: L C R, Side: L R, LFE
Sampling rate : 48.0 KHz
Bit depth : 16 bits
Compression mode : Lossy
Stream size : 276 MiB (12%)
Title : AVO Gavrilov
Language : Russian
Default : No
Forced : No
Audio #3
ID : 4
Format : AC-3
Format/Info : Audio Coding 3
Mode extension : CM (complete main)
Format settings, Endianness : Big
Codec ID : A_AC3
Duration : 1h 40mn
Bit rate mode : Constant
Bit rate : 384 Kbps
Channel count : 6 channels
Channel positions : Front: L C R, Side: L R, LFE
Sampling rate : 48.0 KHz
Bit depth : 16 bits
Compression mode : Lossy
Stream size : 276 MiB (12%)
Title : Eng
Language : English
Default : No
Forced : No
Text #1
ID : 5
Format : UTF-8
Codec ID : S_TEXT/UTF8
Codec ID/Info : UTF-8 Plain Text
Title : Rus
Language : Russian
Default : No
Forced : No
Text #2
ID : 6
Format : UTF-8
Codec ID : S_TEXT/UTF8
Codec ID/Info : UTF-8 Plain Text
Title : Eng
Language : English
Default : No
Forced : No
Text #3
ID : 7
Format : UTF-8
Codec ID : S_TEXT/UTF8
Codec ID/Info : UTF-8 Plain Text
Title : Eng SDH
Language : English
Default : No
Forced : No
Text #4
ID : 8
Format : UTF-8
Codec ID : S_TEXT/UTF8
Codec ID/Info : UTF-8 Plain Text
Title : Eng SDH Colored
Language : English
Default : No
Forced : No
Menu
00:00:00.000 : :Chapter 01
00:04:55.461 : :Chapter 02
00:09:14.095 : :Chapter 03
00:14:55.853 : :Chapter 04
00:21:42.426 : :Chapter 05
00:25:03.001 : :Chapter 06
00:31:23.214 : :Chapter 07
00:34:04.000 : :Chapter 08
00:39:01.088 : :Chapter 09
00:45:47.995 : :Chapter 10
00:49:29.257 : :Chapter 11
00:55:16.479 : :Chapter 12
01:01:55.420 : :Chapter 13
01:08:56.173 : :Chapter 14
01:12:27.634 : :Chapter 15
01:16:00.973 : :Chapter 16
01:19:15.250 : :Chapter 17
01:24:02.620 : :Chapter 18
01:29:39.123 : :Chapter 19
01:35:16.961 : :Chapter 20

Скриншоты

Яндекс.Метрика
Рейтинг@Mail.ru