Воздушный маршал / Non-Stop (Хауме Кольет-Серра / Jaume Collet-Serra) [2014 г., Боевик, триллер, детектив, BDRip-AVC] Dub (Чистый звук) + Sub (Rus, Eng) + Original (Eng)

 

Создавать темы 31-Май-2014 06:07

-Воздушный маршал / Non-Stop- Производство: Великобритания, Франция, США / StudioCanal, Anton Capital Entertainment (ACE), Silver Pictures
Год выпуска: 2014 г.
Жанр: Боевик, триллер, детектив
Продолжительность: 01:46:37
Мировая премьера: 27 января 2014
Российская премьера: 12 марта 2014, «Парадиз»-Перевод: Профессиональный (полное дублирование) [Чистый звук]
Оригинальный аудиопоток: английский-Режиссер: Хауме Кольет-Серра / Jaume Collet-Serra
В ролях: Лиам Нисон, Джулианна Мур, Скут МакНэйри, Мишель Докери, Нэйт Паркер, Кори Столл, Лупита Нионго, Омар Метуолли, Джейсон Батлер Харнер, Лайнас Роуч-Описание: Межконтинентальный авиарейс. Билл Маркс, воздушный маршал, который обеспечивает безопасность пассажиров, получает сообщения с угрозами от маньяка-террориста. Преступник просчитал все ходы и подставил под обвинение самого спецагента. Теперь Маркс — цель спецслужб США. Ему остается одно: вычислить и обезвредить преступника, спасти пассажиров и свою любовь, которую он обретает на краю гибели. До взрыва остаются считанные минуты…- -Качество видео: BDRip-AVC
Контейнер: MKV
Видео кодек: H.264
Аудио кодек: AC3
Видео: 1024x432 (2.40:1), 2 200 Kbps, 23.976 fps, 0.207 bit/pix
Аудио: 448 Kbps, 6 ch, 48.0 KHz [Rus, Dub]
Аудио #2: 448 Kbps, 6 ch, 48.0 KHz [Eng, Original]
Cубтитры: Русские (forced), английские (full, SDH)
Навигация по главам: Есть

Media Info

General
Unique ID : 239511612418701888238207074073513377934 (0xB430423623112DA3B22BD53358ED408E)
Complete name : D:\Non-stop.[2014].BDRip.mkv
Format : Matroska
Format version : Version 4 / Version 2
File size : 2.31 GiB
Duration : 1h 46mn
Overall bit rate : 3 098 Kbps
Encoded date : UTC 2014-05-29 14:17:09
Writing application : mkvmerge v6.6.0 ('The Edge Of The In Between') built on Dec 1 2013 17:55:00
Writing library : libebml v1.3.0 + libmatroska v1.4.1
Video
ID : 1
Format : AVC
Format/Info : Advanced Video Codec
Format profile : [email protected]
Format settings, CABAC : Yes
Format settings, ReFrames : 9 frames
Codec ID : V_MPEG4/ISO/AVC
Bit rate : 2 200 Kbps
Width : 1 024 pixels
Height : 432 pixels
Display aspect ratio : 2.40:1
Frame rate mode : Variable
Color space : YUV
Chroma subsampling : 4:2:0
Bit depth : 8 bits
Scan type : Progressive
Writing library : x264 core 130 r2273 b3065e6
Encoding settings : cabac=1 / ref=9 / deblock=1:0:0 / analyse=0x3:0x113 / me=umh / subme=9 / psy=1 / psy_rd=1.00:0.00 / mixed_ref=1 / me_range=32 / chroma_me=1 / trellis=1 / 8x8dct=1 / cqm=0 / deadzone=21,11 / fast_pskip=1 / chroma_qp_offset=-2 / threads=12 / lookahead_threads=1 / sliced_threads=0 / nr=0 / decimate=1 / interlaced=0 / bluray_compat=0 / constrained_intra=0 / bframes=6 / b_pyramid=2 / b_adapt=2 / b_bias=0 / direct=1 / weightb=1 / open_gop=0 / weightp=2 / keyint=240 / keyint_min=24 / scenecut=40 / intra_refresh=0 / rc_lookahead=40 / rc=2pass / mbtree=1 / bitrate=2200 / ratetol=1.0 / qcomp=0.60 / qpmin=0 / qpmax=69 / qpstep=4 / cplxblur=20.0 / qblur=0.5 / ip_ratio=1.40 / aq=1:1.00
Language : English
Default : Yes
Forced : No
Color primaries : BT.709
Transfer characteristics : BT.709
Matrix coefficients : BT.709
Audio #1
ID : 2
Format : AC-3
Format/Info : Audio Coding 3
Mode extension : CM (complete main)
Format settings, Endianness : Big
Codec ID : A_AC3
Duration : 1h 46mn
Bit rate mode : Constant
Bit rate : 448 Kbps
Channel(s) : 6 channels
Channel positions : Front: L C R, Side: L R, LFE
Sampling rate : 48.0 KHz
Bit depth : 16 bits
Compression mode : Lossy
Stream size : 342 MiB (14%)
Language : Russian
Default : Yes
Forced : No
Audio #2
ID : 3
Format : AC-3
Format/Info : Audio Coding 3
Mode extension : CM (complete main)
Format settings, Endianness : Big
Codec ID : A_AC3
Duration : 1h 46mn
Bit rate mode : Constant
Bit rate : 448 Kbps
Channel(s) : 6 channels
Channel positions : Front: L C R, Side: L R, LFE
Sampling rate : 48.0 KHz
Bit depth : 16 bits
Compression mode : Lossy
Stream size : 342 MiB (14%)
Language : English
Default : No
Forced : No
Text #1
ID : 4
Format : UTF-8
Codec ID : S_TEXT/UTF8
Codec ID/Info : UTF-8 Plain Text
Title : Forced
Language : Russian
Default : Yes
Forced : No
Text #2
ID : 5
Format : UTF-8
Codec ID : S_TEXT/UTF8
Codec ID/Info : UTF-8 Plain Text
Title : Full
Language : English
Default : No
Forced : No
Text #3
ID : 6
Format : UTF-8
Codec ID : S_TEXT/UTF8
Codec ID/Info : UTF-8 Plain Text
Title : SDH
Language : English
Default : No
Forced : No
Menu
00:00:00.000 : en:00:00:00.000
00:04:24.722 : en:00:04:24.639
00:10:29.128 : en:00:10:29.045
00:14:47.136 : en:00:14:47.053
00:18:51.922 : en:00:18:51.839
00:24:22.210 : en:00:24:22.127
00:29:44.657 : en:00:29:44.574
00:35:48.688 : en:00:35:48.605
00:39:28.616 : en:00:39:28.491
00:45:41.697 : en:00:45:41.572
00:49:04.024 : en:00:49:03.941
00:55:17.814 : en:00:55:17.731
01:01:59.340 : en:01:01:59.257
01:08:42.410 : en:01:08:42.327
01:12:17.082 : en:01:12:16.999
01:18:15.065 : en:01:18:14.982
01:26:02.198 : en:01:26:02.032
01:30:46.274 : en:01:30:46.191
01:36:14.811 : en:01:36:14.727
01:40:14.008 : en:01:40:13.799

Скриншоты

Яндекс.Метрика
Рейтинг@Mail.ru