[ Сегодня на трекере фрилич! Идет свободное скачивание без начисления Download ]

Холостяки в отрыве / Les gamins (Энтони Марсиано / Anthony Marciano) [2013 г., Комедия, HDRip] Dub (Line)

 

Создавать темы 31-Май-2014 06:06

-Холостяки в отрыве / Les gamins-- Производство: Франция, Légende Films, PeopleForCinema Productions, Gaumont
Год выпуска: 2013 г.
Жанр: Комедия
Продолжительность: 01:37:28
Мировая премьера: 17 апреля 2013, ...
Российская премьера: 8 мая 2014, «Top Film Distribution»
Перевод: Профессиональный (полное дублирование) [Чистый звук]
Режиссер: Энтони Марсиано / Anthony Marciano-В ролях: Ален Голдман, Саймон Истолэйнен, Катрин Морисс-Описание: Жильберу уже пятьдесят лет, из которых тридцать он женат на Сюзанне, немного занудной дамочке, помешанной на здоровом питании. Они готовятся к встрече с Томасом, женихом своей дочери Лолы. Но Жильбера совершенно не радует предстоящая свадьба. Ему скучно, он разочарован в себе и в своей жизни. Жильбер уверен, что в его нынешнем унылом существовании виновата... Сюзанна! Ведь если бы он не женился, то жизнь его была бы совсем другой - яркой и насыщенной. Жильбер уговаривает Томаса отказаться от свадьбы с Лолой и не повторять его ошибок. И вот, два великовозрастных дитяти, забыв о своих любимых женщинах, пускаются во все тяжкие...-
Качество видео: HDRip
Контейнер: AVI
Видео кодек: XviD
Аудио кодек: MP3
Видео: XviD, 1803 Кбит/с, 720x304 (2.35:1), 24 fps, 0.343 bit / pix
Аудио: 44.1kHz, MP3, 2 ch, 192 Кбит/с (Line)
Cубтитры: отсутствуют

Media Info

General
Complete name : W:\Holostyaki.v.otryve.2013.P.HDRip.1400Mb.avi
Format : AVI
Format/Info : Audio Video Interleave
File size : 1.36 GiB
Duration : 1h 37mn
Overall bit rate : 2 005 Kbps
Writing application : VirtualDubMod 1.5.10.3 | www.virtualdub-fr.org || (build 2550/release)
Writing library : VirtualDubMod build 2550/release
Video
ID : 0
Format : MPEG-4 Visual
Format profile : Advanced [email protected]
Format settings, BVOP : Yes
Format settings, QPel : No
Format settings, GMC : No warppoints
Format settings, Matrix : Custom
Codec ID : XVID
Codec ID/Hint : XviD
Duration : 1h 37mn
Bit rate : 1 803 Kbps
Width : 720 pixels
Height : 304 pixels
Display aspect ratio : 2.35:1
Frame rate : 24.000 fps
Color space : YUV
Chroma subsampling : 4:2:0
Bit depth : 8 bits
Scan type : Progressive
Bits/(Pixel*Frame) : 0.343
Stream size : 1.23 GiB (90%)
Writing library : XviD 1.2.1 (UTC 2008-12-04)
Audio
ID : 1
Format : MPEG Audio
Format version : Version 1
Format profile : Layer 3
Codec ID : 55
Codec ID/Hint : MP3
Duration : 1h 37mn
Bit rate mode : Constant
Bit rate : 192 Kbps
Channel(s) : 2 channels
Sampling rate : 44.1 KHz
Stream size : 134 MiB (10%)
Alignment : Split accross interleaves
Interleave, duration : 42 ms (1.00 video frame)
Interleave, preload duration : 500 ms

Скриншоты

Яндекс.Метрика
Рейтинг@Mail.ru