Недетские игры / Come Out and Play (Макинов / Makinov) [2012 г., Триллер, ужасы, BDRip, 720p] MVO (online movies) + VO (den904) + Sub (Eng) + Original (Eng)

 

Создавать темы 28-Май-2014 14:04

-Недетские игры / Come Out and Play-«Выходи, выходи, где ты спрятался? Выходи - поиграем»- Производство: Мексика, Canana, Videocine S.A. de C.V.
Год выпуска: 2012 г.
Жанр: Триллер, ужасы
Продолжительность: 01:26:49
Мировая премьера: 13 сентября 2012
Российская премьера: 27 марта 2014, «UMS Film»-Перевод: Профессиональный (многоголосый, закадровый) [online movies]
Перевод 2: Любительский (одноголосый, закадровый) [den904]
Оригинальный аудиопоток: английский-Режиссер: Макинов / Makinov
В ролях: Винесса Шоу, Эбон Мосс-Бакрак, Даниэль Хименес Качо, Херардо Тарасена, Алехандро Альварес-Описание: Молодая супружеская пара, Бет и Фрэнсис, находясь в отпуске, отправляются на красивый, но очень отдаленный остров. Бет беременна, и молодожены хотят насладиться последним своим совместным отдыхом перед рождением ребенка. По прибытии они замечают, что, несмотря на огромное количество местных детей, взрослые здесь практически отсутствуют. Первоначально они списывают этот факт на недавно прошедший фестиваль, но очень скоро понимают, что есть другое, более зловещее всему объяснение. И теперь они оба должны противостоять террору и принимать опасные и сложные решения, чтобы попытаться убраться с этого острова живыми.- -Качество видео: BDRip
Контейнер: MKV
Стандарт разрешения: 720p
Видео кодек: MPEG4 AVC
Аудио кодек: AC3
Видео: 1280х574 (2.25:1), 4 785 Kbps, 23.976 fps, 0.272 bit/pix
Аудио: 192 Kbps, 2 ch, 48.0 KHz [Rus, MVO]
Аудио #2: 192 Kbps, 2 ch, 48.0 KHz [Rus, VO]
Аудио #3: 640 Kbps, 6 ch, 48.0 KHz [Eng, Original]
Cубтитры: английские

Media Info

General
Unique ID : 184242770461888192194341514782261652909 (0x8A9BDDEAFDEB8C6790EDD9EB24082DAD)
Complete name : D:\Come.Out.and.Play.2012.Blu.Ray.720p.mkv
Format : Matroska
Format version : Version 4 / Version 2
File size : 3.59 GiB
Duration : 1h 26mn
Overall bit rate : 5 927 Kbps
Encoded date : UTC 2014-05-21 13:53:13
Writing application : mkvmerge v6.9.1 ('Blue Panther') 64bit built on Apr 18 2014 18:23:38
Writing library : libebml v1.3.0 + libmatroska v1.4.1
Video
ID : 1
Format : AVC
Format/Info : Advanced Video Codec
Format profile : [email protected]
Format settings, CABAC : Yes
Format settings, ReFrames : 11 frames
Codec ID : V_MPEG4/ISO/AVC
Duration : 1h 26mn
Bit rate : 4 785 Kbps
Width : 1 280 pixels
Height : 574 pixels
Display aspect ratio : 2.25:1
Frame rate mode : Constant
Frame rate : 23.976 fps
Color space : YUV
Chroma subsampling : 4:2:0
Bit depth : 8 bits
Scan type : Progressive
Bits/(Pixel*Frame) : 0.272
Stream size : 2.90 GiB (81%)
Language : English
Default : Yes
Forced : No
Audio #1
ID : 2
Format : AC-3
Format/Info : Audio Coding 3
Mode extension : CM (complete main)
Format settings, Endianness : Big
Codec ID : A_AC3
Duration : 1h 26mn
Bit rate mode : Constant
Bit rate : 192 Kbps
Channel(s) : 2 channels
Channel positions : Front: L R
Sampling rate : 48.0 KHz
Bit depth : 16 bits
Compression mode : Lossy
Stream size : 119 MiB (3%)
Language : Russian
Default : No
Forced : Yes
Audio #2
ID : 3
Format : AC-3
Format/Info : Audio Coding 3
Mode extension : CM (complete main)
Format settings, Endianness : Big
Codec ID : A_AC3
Duration : 1h 26mn
Bit rate mode : Constant
Bit rate : 192 Kbps
Channel(s) : 2 channels
Channel positions : Front: L R
Sampling rate : 48.0 KHz
Bit depth : 16 bits
Compression mode : Lossy
Stream size : 119 MiB (3%)
Title : den904
Language : Russian
Default : No
Forced : No
Audio #3
ID : 4
Format : AC-3
Format/Info : Audio Coding 3
Mode extension : CM (complete main)
Format settings, Endianness : Big
Codec ID : A_AC3
Duration : 1h 26mn
Bit rate mode : Constant
Bit rate : 640 Kbps
Channel(s) : 6 channels
Channel positions : Front: L C R, Side: L R, LFE
Sampling rate : 48.0 KHz
Bit depth : 16 bits
Compression mode : Lossy
Stream size : 398 MiB (11%)
Language : English
Default : No
Forced : No
Text
ID : 5
Format : UTF-8
Codec ID : S_TEXT/UTF8
Codec ID/Info : UTF-8 Plain Text
Language : English
Default : No
Forced : No

Скриншоты

Яндекс.Метрика
Рейтинг@Mail.ru