[ Сегодня на трекере фрилич! Идет свободное скачивание без начисления Download ]

300 спартанцев / 300 (Зак Снайдер / Zack Snyder) [2007 г., фэнтези, боевик, военный, история, BDRip-AVC] Dub + Original (Eng) + Sub (Rus, Eng) [Jolly Roger]

 

Создавать темы 26-Май-2014 05:22

-300 спартанцев / 300- Год выпуска: 2007 г.
Производство: США
Жанр: фэнтези, боевик, военный, история
Продолжительность: 01:56:33
Перевод: Профессиональный (полное дублирование)
Оригинальный аудиопоток: английский
Режиссер: Зак Снайдер / Zack Snyder
В ролях: Джерард Батлер, Майкл Фассбендер, Винсент Риган, Дэвид Уэнэм, Лина Хиди, Доминик Уэст, Том Уисдом, Эндрю Плевин, Эндрю Тирнан, Родриго Санторо
Описание: События картины повествуют о кровопролитной битве при Фермопилах в 480 году до н. э., в которой триста отважных спартанцев во главе со своим царем Леонидом преградили путь многотысячной армии персидского царя Ксеркса.
Несмотря на численный перевес персов, спартанцы продолжали упорную оборону, проявив мужество и отвагу. Их бесстрашие и героизм вдохновили всю Грецию на объединение против непобедимого врага, переломив тем самым ход Греко-персидских войн…
Качество видео: BDRip-AVC
Контейнер: MKV
Видео кодек: H.264
Аудио кодек: AC3
Видео: MPEG4 Video (H264) 768x320 23.976fps 2011 Kbps
Аудио #1: Dolby AC3 48000Hz 6ch 448 Kbps / Русский
Аудио #2: Dolby AC3 48000Hz 2ch 192 Kbps / Английский
Субтитры: русские, английские (отключаемые)

Media Info / x.264

Log 2-nd pass

x264 [info]: using SAR=1/1
x264 [info]: using cpu capabilities: MMX2 SSE2Fast SSSE3 Cache64 SlowShuffle
x264 [info]: profile Main, level 4.1
x264 [info]: frame I:1531 Avg QP:14.18 size: 54822
x264 [info]: frame P:36676 Avg QP:17.76 size: 21362
x264 [info]: frame B:129447 Avg QP:21.14 size: 7239
x264 [info]: consecutive B-frames: 1.7% 1.6% 5.7% 30.1% 22.9% 38.1%
x264 [info]: mb I I16..4: 31.3% 0.0% 68.7%
x264 [info]: mb P I16..4: 14.1% 0.0% 0.0% P16..4: 34.3% 28.9% 11.7% 0.0% 0.0% skip:11.1%
x264 [info]: mb B I16..4: 2.9% 0.0% 0.0% B16..8: 70.7% 24.0% 2.4% direct: 0.0% skip: 0.0% L0:32.8% L1:34.4% BI:32.8%
x264 [info]: direct mvs spatial:32.1% temporal:67.9%
x264 [info]: coded y,uvDC,uvAC intra: 77.2% 55.3% 23.3% inter: 31.9% 18.4% 2.9%
x264 [info]: i16 v,h,dc,p: 20% 12% 34% 34%
x264 [info]: i4 v,h,dc,ddl,ddr,vr,hd,vl,hu: 15% 16% 18% 8% 10% 8% 9% 8% 9%
x264 [info]: i8c dc,h,v,p: 53% 20% 18% 9%
x264 [info]: ref P L0: 56.1% 24.2% 10.4% 8.8% 0.5%
x264 [info]: ref B L0: 78.3% 16.7% 3.7% 1.2%
x264 [info]: ref B L1: 93.7% 6.3%
x264 [info]: kb/s:2064.43
x264 [total]: encoded 167654 frames, 1.88 fps, 2064.43 kb/s
General
Unique ID : 173063160342008775557018167605791469019 (0x8232C0953EB1AA5A918172B87C92ADDB)
Complete name : I:\300.spartancev.2007.H.264.BDRip-AVC.JRG.mkv
Format : Matroska
Format version : Version 4 / Version 2
File size : 2.20 GiB
Duration : 1h 56mn
Overall bit rate : 2 705 Kbps
Movie name : The Jolly Roger Release Group by http://Pirat.CA
Encoded date : UTC 2014-05-25 14:05:50
Writing application : mkvmerge v6.9.1 ('Blue Panther') 32bit built on Apr 18 2014 18:15:44
Writing library : libebml v1.3.0 + libmatroska v1.4.1
Video
ID : 1
Format : AVC
Format/Info : Advanced Video Codec
Format profile : [email protected]
Format settings, CABAC : No
Format settings, ReFrames : 5 frames
Codec ID : V_MPEG4/ISO/AVC
Duration : 1h 56mn
Bit rate : 2 011 Kbps
Width : 768 pixels
Height : 320 pixels
Display aspect ratio : 2.40:1
Frame rate mode : Constant
Frame rate : 23.976 fps
Color space : YUV
Chroma subsampling : 4:2:0
Bit depth : 8 bits
Scan type : Progressive
Bits/(Pixel*Frame) : 0.341
Stream size : 1.64 GiB (74%)
Writing library : x264 core 130 r2273 b3065e6
Encoding settings : cabac=0 / ref=5 / deblock=0:0:0 / analyse=0x1:0x110 / me=umh / subme=9 / psy=0 / mixed_ref=1 / me_range=24 / chroma_me=1 / trellis=2 / 8x8dct=0 / cqm=0 / deadzone=21,11 / fast_pskip=0 / chroma_qp_offset=0 / threads=3 / lookahead_threads=1 / sliced_threads=0 / nr=0 / decimate=1 / interlaced=0 / bluray_compat=0 / constrained_intra=0 / bframes=5 / b_pyramid=2 / b_adapt=2 / b_bias=0 / direct=0 / weightb=1 / open_gop=0 / weightp=0 / keyint=250 / keyint_min=23 / scenecut=40 / intra_refresh=0 / rc_lookahead=50 / rc=crf / mbtree=1 / crf=17.0 / qcomp=0.60 / qpmin=0 / qpmax=69 / qpstep=4 / ip_ratio=1.40 / aq=1:1.00
Default : Yes
Forced : No
Audio #1
ID : 2
Format : AC-3
Format/Info : Audio Coding 3
Mode extension : CM (complete main)
Format settings, Endianness : Big
Codec ID : A_AC3
Duration : 1h 56mn
Bit rate mode : Constant
Bit rate : 448 Kbps
Channel(s) : 6 channels
Channel positions : Front: L C R, Side: L R, LFE
Sampling rate : 48.0 KHz
Bit depth : 16 bits
Compression mode : Lossy
Stream size : 374 MiB (17%)
Language : Russian
Default : Yes
Forced : No
Audio #2
ID : 3
Format : AC-3
Format/Info : Audio Coding 3
Mode extension : CM (complete main)
Format settings, Endianness : Big
Codec ID : A_AC3
Duration : 1h 56mn
Bit rate mode : Constant
Bit rate : 192 Kbps
Channel(s) : 2 channels
Channel positions : Front: L R
Sampling rate : 48.0 KHz
Bit depth : 16 bits
Compression mode : Lossy
Stream size : 160 MiB (7%)
Language : English
Default : No
Forced : No
Text #1
ID : 4
Format : UTF-8
Codec ID : S_TEXT/UTF8
Codec ID/Info : UTF-8 Plain Text
Language : Russian
Default : No
Forced : No
Text #2
ID : 5
Format : UTF-8
Codec ID : S_TEXT/UTF8
Codec ID/Info : UTF-8 Plain Text
Language : English
Default : No
Forced : No

Скриншоты

Яндекс.Метрика
Рейтинг@Mail.ru