Бесы / Сезон: 1 / Серии: 1-4 из 4 (Владимир Хотиненко) [2014 г., Драма, детектив, экранизация, SATRip] (Пополняемая)

 

Создавать темы 26-Май-2014 05:16

-Бесы-- Производство: Россия
Жанр: Драма, детектив, экранизация
Год выпуска: 2014 г.
Продолжительность: х ~ 01:00:00
Мировая премьера: май 2014
Режиссер: Владимир Хотиненко-В ролях: Максим Матвеев, Антон Шагин, Евгений Ткачук, Мария Шалаева, Игорь Костолевский, Сергей Маковецкий, Иванна Петрова, Владимир Демидов, Мария Луговая, Алексей Кирсанов, Александр Галибин, Вероника Корниенко, Надежда Маркина, Наталия Курдюбова, Вячеслав Чепурченко, Сергей Холмогоров, Фёдор Лавров, Александр Коротков, Александр Марголин, Станислав Беляев, Юлия Акимова, Наташа Швец, Олег Васильков, Юрий Погребничко, Владимир Зайцев-Описание: По одноименному роману Ф.М.Достоевского. Конец 19 века. В губернском городе N происходит серия загадочных убийств. На место преступления приезжает столичный следователь Горемыкин. Поиски убийц приводят его к неожиданному выводу - в городе создан революционный кружок.-
Качество видео: SATRip
Контейнер: AVI
Видео кодек: DivX
Аудио кодек: MP3
Видео: DivX, ~ 1500 Кбит/с, 720x400, 25 fps, 0.208 bpp
Аудио: 48 kHz, MP3, 2 ch, 128 Кбит/с
Cубтитры: отсутствуют

Внимание

Раздача ведется путем добавления новых серий, при каждом добавлении создается новый торрент. Чтобы начать докачку новой серии, пользователям необходимо сделать следующее:
- Остановить скачивание.
- Удалить старый торрент у себя из клиента (старые серии удалять не надо).
- Скачать новый торрент и запустить его у себя в клиенте вместо старого, при этом указать клиенту путь в старую папку куда и должно происходить скачивание новых серий.
Ваш клиент при этом должен произвести хеширование (проверку) старой папки (если не производит сам - помогите ему сделать это), и будет докачивать только те серии которых у вас еще нет. Старые серии при этом не удаляются, а продолжают раздаваться!
Если вы уже удалили старые серии, то предотвратить повторную закачку старых серий можно, отжав галочку в соответствующих местах при запуске нового торрента. По возможности, желательно не удалять старые серии как можно дольше, чтобы релизер не столько продолжал раздавать старые серии, а смог сконцентрироваться на новых.

Media Info

General
Complete name : W:\Besy.SATRip\Besy.01.SATRip.avi
Format : AVI
Format/Info : Audio Video Interleave
File size : 713 MiB
Duration : 1h 0mn
Overall bit rate : 1 638 Kbps
Writing library : VirtualDub build 35491/release
Video
ID : 0
Format : MPEG-4 Visual
Format settings, BVOP : Yes
Format settings, QPel : No
Format settings, GMC : No warppoints
Format settings, Matrix : Default (H.263)
Muxing mode : Packed bitstream
Codec ID : DX50
Codec ID/Hint : DivX 5
Duration : 1h 0mn
Bit rate : 1 500 Kbps
Width : 720 pixels
Height : 400 pixels
Display aspect ratio : 16:9
Frame rate : 25.000 fps
Color space : YUV
Chroma subsampling : 4:2:0
Bit depth : 8 bits
Scan type : Progressive
Bits/(Pixel*Frame) : 0.208
Stream size : 653 MiB (92%)
Writing library : DivX 6.8.5 (UTC 2009-08-20)
Audio
ID : 1
Format : MPEG Audio
Format version : Version 1
Format profile : Layer 3
Mode : Joint stereo
Mode extension : MS Stereo
Codec ID : 55
Codec ID/Hint : MP3
Duration : 1h 0mn
Bit rate mode : Constant
Bit rate : 128 Kbps
Channel(s) : 2 channels
Sampling rate : 48.0 KHz
Stream size : 55.7 MiB (8%)
Alignment : Split accross interleaves
Interleave, duration : 40 ms (1.00 video frame)
Interleave, preload duration : 500 ms

Скриншоты

Создавать темы 27-Май-2014 22:33 (спустя 1 день 17 часов)

Поставил в очередь. Кто посмотрел отпишитесь стоит вообще забирать ???
Яндекс.Метрика
Рейтинг@Mail.ru