Криминальная Россия. Развязка. Фильм 5. Глоток смерти (2014.05.15) SATRip

 

Создавать темы 24-Май-2014 16:13

- Криминальная Россия. Развязка. Фильм 5. Глоток смерти (2014.05.15) SATRip - Режиссер / Телекомпания: 5
Русское название: Криминальная Россия
Год выпуска: 2014
Жанр: Документальный, расследование, криминал
Выпущено: Россия, ООО "Киностудия "Версия"
Описание:
Каждый фильм телевизионного сериала "Криминальная Россия" представляет собой законченную документальную историю,повествующую о расследовании российскими правоохранительными органами конкретного уголовного преступления. Как правило,речь идет о наиболее громких и резонансных делах,раскрытых в новейшей истории Российской Федерации.В каждой серии зритель вместе с реальными следователями и сыщиками следит за перипетиями расследования дела и поиском преступников,узнает обо всех неизвестных деталях совершенного преступления,его мотивы и историю,открывает для себя характеры героев-как преступников,так и сотрудников правоохранительных органов.
В выпуске:
В Московской области началась серия загадочных убийств в электричках. Мёртвых пассажиров стали находить десятками. Первоначально считалось, что все они умерли от сердечных приступов. Но позже удалось установить: их отравили. Молодой человек по фамилии Быговский подмешивал попутчикам в пиво сильнейшее лекарство. А потом забирал всё ценное...
Режиссер: Александр Ярославцев
Продолжительность: ~ 00:38:48
Видеокодек: XVID
Битрейт видео: ~1800 kb/s
Размер кадра: 688 x 528
Качество видео: SATRip
Аудиокодек: MP3, 2ch.
Битрейт аудио: 128 kb/s

MediaInfo

Формат : AVI
Формат/Информация : Audio Video Interleave
Размер файла : 537 Мбайт
Продолжительность : 38 м.
Общий поток : 1936 Кбит/сек
Программа кодирования : VirtualDubMod 1.5.10.3 | www.virtualdub-fr.org || (build 2550/release)
Библиотека кодирования : VirtualDubMod build 2550/release
Видео
Идентификатор : 0
Формат : MPEG-4 Visual
Профиль формата : Advanced [email protected]
Параметр BVOP формата : 2
Параметр QPel формата : Нет
Параметр GMC формата : Без точки перехода
Параметр матрицы формата : Default (MPEG)
Идентификатор кодека : XVID
Идентификатор кодека/Подсказка : XviD
Продолжительность : 38 м.
Битрейт : 1798 Кбит/сек
Ширина : 688 пикселей
Высота : 528 пикселей
Соотношение сторон : 4:3
Частота кадров : 25,000 кадров/сек
Цветовое пространство : YUV
Субдискретизация насыщенности : 4:2:0
Битовая глубина : 8 бит
Тип развёртки : Прогрессивная
Метод сжатия : С потерями
Бит/(Пиксели*Кадры) : 0.198
Размер потока : 499 Мбайт (93%)
Библиотека кодирования : XviD 1.2.1 (UTC 2008-12-04)
Аудио
Идентификатор : 1
Формат : MPEG Audio
Версия формата : Version 1
Профиль формата : Layer 3
Идентификатор кодека : 55
Идентификатор кодека/Подсказка : MP3
Продолжительность : 38 м.
Вид битрейта : Постоянный
Битрейт : 128 Кбит/сек
Каналы : 2 канала
Частота : 48,0 КГц
Метод сжатия : С потерями
Размер потока : 35,5 Мбайт (7%)
Выравнивание : Соединение по промежуткам
Продолжительность промежутка : 40 мс. (1,00 видеокадр)
Время предзагрузки промежутка : 504 мс.
Библиотека кодирования : LAME3.99r
Настройки программы : -m s -V 4 -q 2 -lowpass 17 -b 128
Скриншоты:
Время раздачи: 24/7. До первых 5 скачавших.
Rip by ПЕЧАЛЬ
Яндекс.Метрика
Рейтинг@Mail.ru