Долгая помолвка / Un long dimanche de fiançailles (Жан-Пьер Жёне / Jean-Pierre Jeunet) [2004 г., драма, мелодрама, детектив, военный, экранизация, DVDRip] Dub

 

Создавать темы 22-Май-2014 15:30

-Долгая помолвка / Un long dimanche de fiançailles-«Never let go»- Год выпуска: 2004 г.
Производство: США , Франция , 2003 Productions, Warner Bros., Tapioca Films, TF1 Films Production, Gerber Pictures
Жанр: драма, мелодрама, детектив, военный, экранизация
Продолжительность: 02:13:10
Мировая премьера: 27 октября 2004
Российская премьера: 2 декабря 2004, «Каро-Премьер»
Дата выхода DVD: 1 марта 2012, «CP Дистрибуция»
Перевод: Профессиональный (полное дублирование)
Режиссёр: Жан-Пьер Жёне / Jean-Pierre Jeunet-В ролях: Одри Тоту, Гаспар Ульель, Доминик Пинон, Шанталь Нойвирт, Андре Дюссолье, Тикки Ольгадо, Марион Котийяр, Доминик Беттенфельд, Джоди Фостер, Жан-Пьер Дарруссен-Описание: Конец Первой мировой войны. История девушки, упорно ищущей своего исчезнувшего жениха. Он — один из пяти французских солдат, приговорённых при загадочных обстоятельствах военно-полевым судом к смерти.
Способом исполнения наказания избран не расстрел: приговорённых оставляют на нейтральной полосе, где их непременно настигнет пуля: если не противника, то своих же товарищей по оружию. Лишь бессмертная любовь способна преодолеть мучительное испытание с целью найти правду…
-Качество видео: DVDRip
Контейнер: AVI
Видео кодек: XviD
Аудио кодек: AC3
Видео: 720x304 (2.35:1), 1890 kbps, 24 fps, 0.36 bit/pixel
Аудио: 448 kbps, 6 ch, 48.0 kHz
Cубтитры: отсутствуют

Media Info

Общее
Полное имя : Долгая помолвка_ A Very Long Engagement.2004.[DVDRip].avi
Формат : AVI
Формат/Информация : Audio Video Interleave
Профиль формата : OpenDML
Размер файла : 2,19 Гбайт
Продолжительность : 2 ч. 13 м.
Общий поток : 2350 Кбит/сек
Программа кодирования : VirtualDubMod 1.5.10.2 (build 2540/release)
Библиотека кодирования : VirtualDubMod build 2540/release
Видео
Идентификатор : 0
Формат : MPEG-4 Visual
Профиль формата : Advanced [email protected]
Параметр BVOP формата : 1
Параметр QPel формата : Нет
Параметр GMC формата : Без точки перехода
Параметр матрицы формата : Default (MPEG)
Идентификатор кодека : XVID
Идентификатор кодека/Подсказка : XviD
Продолжительность : 2 ч. 13 м.
Битрейт : 1890 Кбит/сек
Ширина : 720 пикселей
Высота : 304 пикселя
Соотношение сторон : 2,35:1
Частота кадров : 24,000 кадра/сек
Цветовое пространство : YUV
Субдискретизация насыщенности : 4:2:0
Битовая глубина : 8 бит
Тип развёртки : Прогрессивная
Метод сжатия : С потерями
Бит/(Пиксели*Кадры) : 0.360
Размер потока : 1,76 Гбайт (80%)
Библиотека кодирования : XviD 1.2.1 (UTC 2008-12-04)
Аудио
Идентификатор : 1
Формат : AC-3
Формат/Информация : Audio Coding 3
Расширение режима : CM (complete main)
Параметр Endianness формата : Big
Идентификатор кодека : 2000
Продолжительность : 2 ч. 13 м.
Вид битрейта : Постоянный
Битрейт : 448 Кбит/сек
Каналы : 6 каналов
Расположение каналов : Front: L C R, Side: L R, LFE
Частота : 48,0 КГц
Битовая глубина : 16 бит
Метод сжатия : С потерями
Размер потока : 427 Мбайт (19%)
Выравнивание : Разделение по промежуткам
Продолжительность промежутка : 42 мс. (1,00 видеокадр)
Время предзагрузки промежутка : 500 мс.

Доп. информация

Сцена с казнью Тины Ломбарди соответствует документальной съёмке последней публичной казни, прошедшей во Франции в 1939 году.
Жан-Пьерр Жёне ждал возможности экранизации своего любимого романа Себастьяна Жапризо больше десяти лет.
Вещь, которую Манек мастерит в конце фильма - это иллюстрация для рукописной книги, миниатюра на средневековый лад. Этого в романе, по которому поставлена «Долгая помолвка», не было: сам Жёне придумал, вдохновлённый сценой из «Американского друга» Вима Вендерса.

Награды



Скриншоты

Яндекс.Метрика
Рейтинг@Mail.ru