[ Сегодня на трекере фрилич! Идет свободное скачивание без начисления Download ]

Рэйн Фолл / Rain Fall (Макс Мэнникс / Max Mannix) [2009 г., Боевик, триллер, драма, криминал, HDRip] DVO

 

Создавать темы 20-Май-2014 02:05

-Рэйн Фолл / Rain Fall- Производство: Япония, Rain Fall, Rain Production, 3 Dogs and a Pony
Год выпуска: 2009 г.
Жанр: Боевик, триллер, драма, криминал
Продолжительность: 01:50:41
Мировая премьера: 16 апреля 2009
Дата выхода DVD: 22 марта 2011, «Флагман-Трейд»-Перевод: Профессиональный (двухголосый, закадровый)-Режиссер: Макс Мэнникс / Max Mannix
В ролях: Киппеи Шина, Гари Олдман, Кёко Хасэгава, Миса Шимицу, Такуми Бандо, Акира Эмото, Дик Хантер, Дэвид МакФол-Описание: История наемного убийцы, который вынужден защищать дочь одной из жертв от преследования ЦРУ….-Качество видео: HDRip
Контейнер: AVI
Видео кодек: XviD
Аудио кодек: AC3
Видео: 720x304 (2.37:1), 24.000 fps, XviD build 50 ~1437 kbps avg, 0.27 bit/pixel
Аудио: 48 kHz, AC3 Dolby Digital, 3/2 (L,C,R,l,r) + LFE ch, ~448 kbps
Cубтитры: отсутствуют

Media Info

General
Complete name : D:\Rain Fall.2009.P.HDRip.1400MB.avi
Format : AVI
Format/Info : Audio Video Interleave
File size : 1.46 GiB
Duration : 1h 50mn
Overall bit rate : 1 895 Kbps
Writing application : VirtualDubMod 1.5.10.3 | www.virtualdub-fr.org || (build 2550/release)
Writing library : VirtualDubMod build 2550/release
Video
ID : 0
Format : MPEG-4 Visual
Format profile : Advanced [email protected]
Format settings, BVOP : 1
Format settings, QPel : No
Format settings, GMC : No warppoints
Format settings, Matrix : Default (MPEG)
Codec ID : XVID
Codec ID/Hint : XviD
Duration : 1h 50mn
Bit rate : 1 437 Kbps
Width : 720 pixels
Height : 304 pixels
Display aspect ratio : 2.35:1
Frame rate : 24.000 fps
Color space : YUV
Chroma subsampling : 4:2:0
Bit depth : 8 bits
Scan type : Progressive
Compression mode : Lossy
Bits/(Pixel*Frame) : 0.274
Stream size : 1.11 GiB (76%)
Writing library : XviD 1.2.1 (UTC 2008-12-04)
Audio
ID : 1
Format : AC-3
Format/Info : Audio Coding 3
Mode extension : CM (complete main)
Format settings, Endianness : Big
Codec ID : 2000
Duration : 1h 50mn
Bit rate mode : Constant
Bit rate : 448 Kbps
Channel(s) : 6 channels
Channel positions : Front: L C R, Side: L R, LFE
Sampling rate : 48.0 KHz
Bit depth : 16 bits
Compression mode : Lossy
Stream size : 354 MiB (24%)
Alignment : Split accross interleaves
Interleave, duration : 42 ms (1.00 video frame)
Interleave, preload duration : 500 ms

Скриншоты

Яндекс.Метрика
Рейтинг@Mail.ru