[ Сегодня на трекере фрилич! Идет свободное скачивание без начисления Download ]

Цой - Кино (2012), DVBRip

 

Создавать темы 13-Май-2014 17:47

-Цой - Кино (2012) Режиссер / Телекомпания: 1 ТВ канал
Год выпуска: 2012
Жанр: Документальный, Телепередача

Продолжительность: 00:44:09
Качество видео: DVBRip
Видеокодек: MPEG-2
Битрейт видео: ~2549 kb/s
Размер кадра: [email protected]
Аудиокодек: MPEG Audio Layer 2
Битрейт аудио: ~192kbps

MediaInfo

Общее
Полное имя : G:\TORRENTS\Цой - Кино\TSOY-KINO.2012.DVB.Doc66.mpg
Формат : MPEG-PS
Размер файла : 883 Мбайт
Продолжительность : 44 м.
Режим общего битрейта : Переменный
Общий поток : 2796 Кбит/сек
Видео
Идентификатор : 224 (0xE0)
Формат : MPEG Video
Версия формата : Version 2
Профиль формата : [email protected]
Параметр BVOP формата : Да
Параметр матрицы формата : Выборочная
Параметр GOP формата : M=3, N=24
Продолжительность : 44 м.
Вид битрейта : Переменный
Битрейт : 2549 Кбит/сек
Максимальный битрейт : 15,0 Мбит/сек
Ширина : 704 пикселя
Высота : 576 пикселей
Соотношение сторон : 16:9
Частота кадров : 25,000 кадров/сек
Стандарт вещания : PAL
Цветовое пространство : YUV
Субдискретизация насыщенности : 4:2:0
Битовая глубина : 8 бит
Метод сжатия : С потерями
Бит/(Пиксели*Кадры) : 0.251
Временной код первого кадра : 00:00:00:00
Оригинал временного кода : Group of pictures header
Размер потока : 805 Мбайт (91%)
Аудио
Идентификатор : 192 (0xC0)
Формат : MPEG Audio
Версия формата : Version 1
Профиль формата : Layer 2
Продолжительность : 44 м.
Вид битрейта : Постоянный
Битрейт : 192 Кбит/сек
Каналы : 2 канала
Частота : 48,0 КГц
Метод сжатия : С потерями
Размер потока : 60,7 Мбайт (7%)

Описание

Подруга Виктора Цоя Наташа в течение двадцати двух лет хранила уникальную запись – песню "Атаман", которую Виктор Цой напел однажды на свой двухкассетный магнитофон. Эта песня никогда нигде не исполнялась и в самом ее существовании многие сомневались. Понимая, что время пришло, Наташа отправляет кассету Георгию Гурьянову, а сама едет в Питер к сыну Цоя Александру, чтобы рассказать ему, почему и зачем она отправила запись барабанщику группы "Кино", ныне знаменитому в России и Европе художнику.
Александр и Наташа встречаются в клубе, где Наташа рассказывает Саше о группе "Кино", а Саша рассказывает ей о своей жизни, о том, что он тоже музыкант, что у него свой клуб и насыщенная событиями жизнь. Из разговора выясняется, что Саша не общается с музыкантами группы "Кино" – смерть Виктора и лихие 90-ые развели в разные стороны близких некогда людей. Наташа и Саша приходят к выводу, что было бы правильно, если бы музыканты "Кино" собрались вместе и записали песню Виктора "Атаман".
Прежде, чем собрать музыкантов "Кино" Наташа и Саша приходят к Инне Николаевне, маме Марьяны - матери Саши. Марьяна тоже была членом группы "Кино", а ее мать – очень близким Виктору человеком. Инна Николаевна вспоминает о том, как впервые увидела Виктора и какими помнит юных "киношников", которые стали впоследствии его самыми близкими друзьями.
И вот спустя годы Саша приходит к Георгию Гурьянову, к ним присоединяется Юрий Каспарян и Игорь Тихомиров. Неформальное общение "киношников" с сыном их близкого друга приводит к тому, что музыканты арендуют студию и записывают песню "Атаман", которая звучит в финале фильма.
Все действие фильма состоит из лайфов – встреч музыкантов с Сашей, воспоминаний о прошлом, разговоров о музыке. К "киношникам" присоединяется Игорь Вдовин, музыкант и композитор, который помогает "Кино" с записью новой песни.
"Кино" – это уникальная атмосфера, в которой Виктор Цой состоялся как поэт, певец и композитор. По-настоящему близкие Виктору люди никогда не появлялись в СМИ-пространстве – их мир и при жизни Цоя был закрыт для посторонних. Фильм дает возможность взглянуть со стороны на тех, кто были настоящими друзьями Виктора Цоя.

Время раздачи: 09:00:00 - 24:00:00
Яндекс.Метрика
Рейтинг@Mail.ru