Сквозь снег / Snowpiercer (Пон Чжун Хо / Joon-ho Bong) [2013 г., фантастика, боевик, драма, BDRip-AVC] MVO + Original (Eng) + Sub (Rus, Eng) [Jolly Roger]

 

Создавать темы 13-Май-2014 02:15

-Сквозь снег / Snowpiercer- Год выпуска: 2013 г.
Производство: Корея Южная, США, Франция, Чехия
Жанр: фантастика, боевик, драма
Продолжительность: 02:05:54
Перевод: Любительский (многоголосый, закадровый)
Оригинальный аудиопоток: английский
Режиссер: Пон Чжун Хо / Joon-ho Bong
В ролях: Крис Эванс, Сон Кан Хо, Тильда Суинтон, Джейми Белл, Октавия Спенсер, Юэн Бремнер, Элисон Пилл, Ко А Сон, Эд Харрис, Джон Хёрт
Описание: Земля. Недалекое будущее. Семнадцать лет назад на планете произошла техногенная катастрофа. Там, где раньше росли леса и цвели сады, теперь лежат снег и лед. Жизнь сохранилась лишь в гигантском поезде, без остановки мчащемся по трансевразийской магистрали. В первых вагонах состава живет правящая элита, во множестве последних — простые люди. Жизнь в хвосте поезда напоминает концлагерь — болезни, нищета, беспредел надсмотрщиков. Но именно здесь из среды униженных и оскорбленных восстает человек, способный восстановить справедливость. Однако у каждой благородной идеи есть своя темная сторона, и любая революция пожирает своих детей.
Качество видео: BDRip-AVC
Контейнер: MKV
Видео кодек: H.264
Аудио кодек: AC3
Видео: MPEG4 Video (H264) 1008x544 23.976fps 1831 Kbps
Аудио 1: Dolby AC3 48000Hz 6ch 384 Kbps / русский
Аудио 2: Dolby AC3 48000Hz 2ch 192 Kbps / английский
Субтитры: русские (полные), английские (форсированные и полные) [отключаемые]

Media Info / x.264

Log 2-nd pass

x264 [info]: using SAR=1/1
x264 [info]: using cpu capabilities: MMX2 SSE2Fast SSSE3 Cache64 SlowShuffle
x264 [info]: profile High, level 4.1
x264 [info]: frame I:1163 Avg QP:13.51 size: 68228
x264 [info]: frame P:40805 Avg QP:17.24 size: 21960
x264 [info]: frame B:139139 Avg QP:20.08 size: 5413
x264 [info]: consecutive B-frames: 2.6% 3.9% 8.9% 18.0% 16.1% 37.5% 6.1% 2.2% 4.8%
x264 [info]: mb I I16..4: 21.5% 40.0% 38.5%
x264 [info]: mb P I16..4: 8.5% 18.7% 4.2% P16..4: 34.5% 15.3% 8.7% 0.9% 0.2% skip: 9.1%
x264 [info]: mb B I16..4: 1.1% 2.1% 0.4% B16..8: 32.3% 9.8% 1.6% direct: 3.4% skip:49.2% L0:45.4% L1:40.2% BI:14.5%
x264 [info]: 8x8 transform intra:58.1% inter:55.0%
x264 [info]: direct mvs spatial:98.0% temporal:2.0%
x264 [info]: coded y,uvDC,uvAC intra: 57.3% 47.8% 18.2% inter: 16.2% 9.9% 1.5%
x264 [info]: i16 v,h,dc,p: 41% 19% 18% 22%
x264 [info]: i8 v,h,dc,ddl,ddr,vr,hd,vl,hu: 19% 16% 23% 5% 7% 7% 7% 7% 8%
x264 [info]: i4 v,h,dc,ddl,ddr,vr,hd,vl,hu: 21% 15% 27% 5% 8% 7% 7% 5% 6%
x264 [info]: i8c dc,h,v,p: 43% 27% 18% 12%
x264 [info]: Weighted P-Frames: Y:8.5% UV:4.6%
x264 [info]: ref P L0: 46.2% 10.6% 20.2% 7.4% 6.5% 4.2% 4.3% 0.5% 0.0%
x264 [info]: ref B L0: 73.5% 13.7% 6.5% 3.4% 2.2% 0.7%
x264 [info]: ref B L1: 92.9% 7.1%
x264 [info]: kb/s:1830.80
x264 [total]: encoded 181107 frames, 1.64 fps, 1830.80 kb/s
Общее
Уникальный идентификатор : 234804948050526022361005645360082052898 (0xB0A5C9BDE983F4E1964F14681E15E722)
Полное имя : I:\Skvoz.sneg.2013.H.264.BDRip-AVC.JRG.MVO.mkv
Формат : Matroska
Версия формата : Version 4 / Version 2
Размер файла : 2,12 Гбайт
Продолжительность : 2 ч. 5 м.
Общий поток : 2409 Кбит/сек
Название фильма : The Jolly Roger Release Group by
Дата кодирования : UTC 2014-05-12 16:22:45
Программа кодирования : mkvmerge v6.9.1 ('Blue Panther') 32bit built on Apr 18 2014 18:15:44
Библиотека кодирования : libebml v1.3.0 + libmatroska v1.4.1
Видео
Идентификатор : 1
Формат : AVC
Формат/Информация : Advanced Video Codec
Профиль формата : [email protected]
Параметр CABAC формата : Да
Параметр ReFrames формата : 7 кадров
Идентификатор кодека : V_MPEG4/ISO/AVC
Продолжительность : 2 ч. 5 м.
Битрейт : 1831 Кбит/сек
Ширина : 1008 пикселей
Высота : 544 пикселя
Соотношение сторон : 1,85:1
Режим частоты кадров : Постоянный
Частота кадров : 23,976 кадра/сек
Цветовое пространство : YUV
Субдискретизация насыщенности : 4:2:0
Битовая глубина : 8 бит
Тип развёртки : Прогрессивная
Бит/(Пиксели*Кадры) : 0.139
Размер потока : 1,57 Гбайт (74%)
Библиотека кодирования : x264 core 130 r2273 b3065e6
Настройки программы : cabac=1 / ref=7 / deblock=1:0:0 / analyse=0x3:0x133 / me=umh / subme=10 / psy=0 / mixed_ref=1 / me_range=24 / chroma_me=1 / trellis=2 / 8x8dct=1 / cqm=0 / deadzone=21,11 / fast_pskip=0 / chroma_qp_offset=0 / threads=3 / lookahead_threads=1 / sliced_threads=0 / nr=0 / decimate=1 / interlaced=0 / bluray_compat=0 / constrained_intra=0 / bframes=8 / b_pyramid=2 / b_adapt=2 / b_bias=0 / direct=3 / weightb=1 / open_gop=0 / weightp=2 / keyint=250 / keyint_min=23 / scenecut=40 / intra_refresh=0 / rc_lookahead=50 / rc=2pass / mbtree=1 / bitrate=1831 / ratetol=1.0 / qcomp=0.60 / qpmin=0 / qpmax=69 / qpstep=4 / cplxblur=20.0 / qblur=0.5 / ip_ratio=1.40 / aq=1:1.00
Язык : English
Default : Да
Forced : Нет
Аудио #1
Идентификатор : 2
Формат : AC-3
Формат/Информация : Audio Coding 3
Расширение режима : CM (complete main)
Параметр Endianness формата : Big
Идентификатор кодека : A_AC3
Продолжительность : 2 ч. 5 м.
Вид битрейта : Постоянный
Битрейт : 384 Кбит/сек
Каналы : 6 каналов
Расположение каналов : Front: L C R, Side: L R, LFE
Частота : 48,0 КГц
Битовая глубина : 16 бит
Метод сжатия : С потерями
Размер потока : 346 Мбайт (16%)
Язык : Russian
Default : Да
Forced : Нет
Аудио #2
Идентификатор : 3
Формат : AC-3
Формат/Информация : Audio Coding 3
Расширение режима : CM (complete main)
Параметр Endianness формата : Big
Идентификатор кодека : A_AC3
Продолжительность : 2 ч. 5 м.
Вид битрейта : Постоянный
Битрейт : 192 Кбит/сек
Каналы : 2 канала
Расположение каналов : Front: L R
Частота : 48,0 КГц
Битовая глубина : 16 бит
Метод сжатия : С потерями
Размер потока : 173 Мбайт (8%)
Язык : English
Default : Нет
Forced : Нет
Текст #1
Идентификатор : 4
Формат : UTF-8
Идентификатор кодека : S_TEXT/UTF8
Идентификатор кодека/Информация : UTF-8 Plain Text
Заголовок : Full
Язык : Russian
Default : Нет
Forced : Нет
Текст #2
Идентификатор : 5
Формат : UTF-8
Идентификатор кодека : S_TEXT/UTF8
Идентификатор кодека/Информация : UTF-8 Plain Text
Заголовок : Forced
Язык : English
Default : Нет
Forced : Нет
Текст #3
Идентификатор : 6
Формат : UTF-8
Идентификатор кодека : S_TEXT/UTF8
Идентификатор кодека/Информация : UTF-8 Plain Text
Заголовок : Full
Язык : English
Default : Нет
Forced : Нет

Скриншоты

Яндекс.Метрика
Рейтинг@Mail.ru