Джек Райан: Теория хаоса / Jack Ryan: Shadow Recruit (2014) WEB-DLRip [Line]

 

Создавать темы 09-Май-2014 10:18

-Джек Райан: Теория хаоса / Jack Ryan: Shadow Recruit (2014) WEB-DLRip-«Главное оружие – интеллект»-- Год выпуска: 2014
Производство: США, Россия | Paramount Pictures, Skydance Productions, Mace Neufeld Productions
Жанр: Боевик, Триллер, Драма-Режиссер: Кеннет Брэна
Продюсер: Дэвид Баррон, Лоренцо Ди Бонавентура, Дэна Голдберг
Актеры: Крис Пайн, Кира Найтли, Кеннет Брэна, Кевин Костнер, Алек Утгофф, Джемма Чан, Петер Андерссон, Елена Великанова, Нонсо Анози, Колм Фиор-Описание фильма:
Рядовой аналитик ЦРУ Джек Райан приезжает в Москву, чтобы решить простую задачу: ему нужно проверить операции компании, принадлежащей миллиардеру Виктору Черевину. Но все усложняется, когда Райана пытаются убить. Теперь он вынужден защищаться с оружием в руках, вспоминая армейские навыки и неожиданно для себя оказываясь в роли настоящего спецагента. На помощь Джеку приходят маститый офицер спецслужб Харпер и внезапно оказавшаяся в Москве супруга Кэти. Но облегчит ли это миссию, которую теперь предстоит выполнить Райану, — предотвратить международный заговор, грозящий погрузить весь мир в хаос?-Перевод: Дублированный [Чистый звук]
Субтитры: Отсутствуют- -Дата мировой премьеры: 15 января 2014
Дата российской премьеры: 16 января 2014, «Централ Партнершип»
Дата выхода DVD релиза: 19 мая 2014, «Новый Диск»
-Продолжительность: 01:45:48
Качество видео: WEB-DLRip-Видеокодек: Xvid
Битрейт видео: ~1712 kb/s
Размер кадра: 720x304
Аудиокодек: AC3 2.0
Битрейт аудио: 128 kb/s (2 ch)
Сэмпл: Скачать-

MediaInfo:

Общее
Полное имя :Djek.Rayan.Teoriya.Haosa.2014.D.WEB-DLRip.1400MB.avi [yellosoft-club.ru]
Формат : AVI
Формат/Информация : Audio Video Interleave
Размер файла : 1,37 Гбайт
Продолжительность : 1 ч. 45 м.
Общий поток : 1849 Кбит/сек
Программа кодирования : VirtualDubMod 1.5.10.2 (build 2540/release)
Библиотека кодирования : VirtualDubMod build 2540/release
Видео
Идентификатор : 0
Формат : MPEG-4 Visual
Профиль формата : Advanced [email protected]
Параметр BVOP формата : 2
Параметр QPel формата : Нет
Параметр GMC формата : Без точки перехода
Параметр матрицы формата : Выборочная
Идентификатор кодека : XVID
Идентификатор кодека/Подсказка : XviD
Продолжительность : 1 ч. 45 м.
Битрейт : 1712 Кбит/сек
Ширина : 720 пикселей
Высота : 304 пикселя
Соотношение сторон : 2,35:1
Частота кадров : 23,976 кадра/сек
Цветовое пространство : YUV
Субдискретизация насыщенности : 4:2:0
Битовая глубина : 8 бит
Тип развёртки : Прогрессивная
Метод сжатия : С потерями
Бит/(Пиксели*Кадры) : 0.326
Размер потока : 1,27 Гбайт (93%)
Библиотека кодирования : XviD 1.2.1 (UTC 2008-12-04)
Аудио
Идентификатор : 1
Формат : AC-3
Формат/Информация : Audio Coding 3
Расширение режима : CM (complete main)
Параметр Endianness формата : Big
Идентификатор кодека : 2000
Продолжительность : 1 ч. 45 м.
Вид битрейта : Постоянный
Битрейт : 128 Кбит/сек
Каналы : 2 канала
Расположение каналов : Front: L R
Частота : 48,0 КГц
Битовая глубина : 16 бит
Метод сжатия : С потерями
Размер потока : 96,9 Мбайт (7%)
Выравнивание : Разделение по промежуткам
Продолжительность промежутка : 42 мс. (1,00 видеокадр)
Время предзагрузки промежутка : 500 мс.
-

Скриншоты

Яндекс.Метрика
Рейтинг@Mail.ru