Братья-металлисты / Mammas pojkar (Ульф Мальмрос / Ulf Malmros) [2012 г., комедия, HDRip] VO [PashaUp]

 

Создавать темы 05-Май-2014 02:05

-Братья-металлисты / Mammas pojkar- Производство: Швеция, BOB Film Sweden AB, Film i Väst, Molkom Film
Год выпуска: 2012 г.
Жанр: комедия
Продолжительность: 01:39:52
Мировая премьера: 13 декабря 2012-Перевод: Любительский (одноголосый, закадровый) [PashaUp]-Режиссер: Ульф Мальмрос / Ulf Malmros
В ролях: Лотта Тейле, Юхан Эстлинг, Бьёрн Старрин, Челл Бергквист, Мия Шерингер, Тува Новотны, Томас Чернельд, Карина Экман, Лена Валльман-Альстер-Описание: Братья Один и Тор — самые настоящие металлисты. Они живут вместе с мамой Гуниллой и только и делают, что слушают старый добрый металл в исполнении канадской группы Ludor. Они намерены организовать в местной церкви конвенцию, а мать им всячески помогает, хотя все же ей было бы приятнее, если сыночки обзавелись семьями и растили внуков. И вот однажды в жизни Одина и Тора появляется учительница начальных классов Йенни — смогут ли они изменить своему металлическому кумиру и отвернуться от собственных принципов?-Качество видео: HDRip
Контейнер: AVI
Видео кодек: XviD
Аудио кодек: AC3
Видео: 720x304 (2.37:1), 24 fps, XviD build 50 ~1757 kbps avg, 0.33 bit/pixel
Аудио: 48 kHz, AC3 Dolby Digital, 2/0 (L,R) ch, ~192 kbps
Cубтитры: отсутствуют

Media Info

General
Complete name : D:\Mammas.Pojkar.2012.L1.HDRip.1400Mb.avi
Format : AVI
Format/Info : Audio Video Interleave
File size : 1.37 GiB
Duration : 1h 39mn
Overall bit rate : 1 959 Kbps
Writing application : VirtualDubMod 1.5.10.3 | www.virtualdub-fr.org || (build 2550/release)
Writing library : VirtualDubMod build 2550/release
Video
ID : 0
Format : MPEG-4 Visual
Format profile : Advanced [email protected]
Format settings, BVOP : 1
Format settings, QPel : No
Format settings, GMC : No warppoints
Format settings, Matrix : Custom
Codec ID : XVID
Codec ID/Hint : XviD
Duration : 1h 39mn
Bit rate : 1 757 Kbps
Width : 720 pixels
Height : 304 pixels
Display aspect ratio : 2.35:1
Frame rate : 24.000 fps
Color space : YUV
Chroma subsampling : 4:2:0
Bit depth : 8 bits
Scan type : Progressive
Compression mode : Lossy
Bits/(Pixel*Frame) : 0.335
Stream size : 1.23 GiB (90%)
Writing library : XviD 1.2.1 (UTC 2008-12-04)
Audio
ID : 1
Format : AC-3
Format/Info : Audio Coding 3
Mode extension : CM (complete main)
Format settings, Endianness : Big
Codec ID : 2000
Duration : 1h 39mn
Bit rate mode : Constant
Bit rate : 192 Kbps
Channel(s) : 2 channels
Channel positions : Front: L R
Sampling rate : 48.0 KHz
Bit depth : 16 bits
Compression mode : Lossy
Stream size : 137 MiB (10%)
Alignment : Split accross interleaves
Interleave, duration : 42 ms (1.00 video frame)
Interleave, preload duration : 500 ms

Скриншоты

Яндекс.Метрика
Рейтинг@Mail.ru