Убей своих любимых / Kill Your Darlings (Джон Крокидас / John Krokidas ) [2013, США, драма, BDRip 720p] DVO (Jetvis Studio) + Original (Eng) + Subs (Rus, Eng)

 

Создавать темы 22-Апр-2014 17:42

Убей своих любимых / Kill Your Darlings
Страна: США
Жанр: Драма
Дата выпуска: 2013
Продолжительность: 01:42:44
Перевод: Профессиональный (двухголосый закадровый) - Jetvis Studio
Оригинальная аудидорожка: английский
Субтитры: русские, английские
Режиссёр: Джон Крокидас / John Krokidas
В ролях: Дэниэл Рэдклифф, Дэйн ДеХаан, Бен Фостер, Майкл С. Холл, Джек Хьюстон, Дженнифер Джейсон Ли, Элизабет Олсен, Дэвид Кросс, Джон Каллам
Релиз:
Перевод: notabenoid, исправленный.
Озвучка: Jetvis Studio
Роли озвучивали: Иван Назаров и Анастасия Домнина.
Спонсор: Маргарита Гловацкая.
Описание:
Фильм повествует о годах молодости американских писателей-битников ХХ века Аллена Гинзберга и Джека Керуака.

MI

Общее
Уникальный идентификатор : 192294379222483807961497103673094018348 (0x90AA8CE0FF6E5A96B214A0C10713952C)
Полное имя : C:\Торрент\Kill.Your.Darlings.2013.Jetvis.Studio.BDRip.720p.mkv
Формат : Matroska
Версия формата : Version 4 / Version 2
Размер файла : 4,81 Гбайт
Продолжительность : 1 ч. 42 м.
Общий поток : 6704 Кбит/сек
Дата кодирования : UTC 2014-04-22 11:50:26
Программа кодирования : mkvmerge v6.9.0 ('On Duende') 64bit built on Apr 18 2014 12:57:54
Библиотека кодирования : libebml v1.3.0 + libmatroska v1.4.1
Видео
Идентификатор : 1
Формат : AVC
Формат/Информация : Advanced Video Codec
Профиль формата : [email protected]
Параметр CABAC формата : Да
Параметр ReFrames формата : 12 кадров
Идентификатор кодека : V_MPEG4/ISO/AVC
Продолжительность : 1 ч. 42 м.
Битрейт : 5000 Кбит/сек
Ширина : 1280 пикселей
Высота : 534 пикселя
Соотношение сторон : 2,40:1
Режим частоты кадров : Постоянный
Частота кадров : 23,976 кадра/сек
Цветовое пространство : YUV
Субдискретизация насыщенности : 4:2:0
Битовая глубина : 8 бит
Тип развёртки : Прогрессивная
Бит/(Пиксели*Кадры) : 0.305
Размер потока : 3,49 Гбайт (73%)
Библиотека кодирования : x264 core 138 r2358 9e941d1
Настройки программы : cabac=1 / ref=12 / deblock=1:-3:-3 / analyse=0x3:0x113 / me=umh / subme=11 / psy=1 / psy_rd=1.00:0.10 / mixed_ref=1 / me_range=48 / chroma_me=1 / trellis=2 / 8x8dct=1 / cqm=0 / deadzone=21,11 / fast_pskip=0 / chroma_qp_offset=-3 / threads=48 / lookahead_threads=4 / sliced_threads=0 / nr=0 / decimate=0 / interlaced=0 / bluray_compat=0 / constrained_intra=0 / bframes=8 / b_pyramid=2 / b_adapt=2 / b_bias=0 / direct=3 / weightb=1 / open_gop=0 / weightp=2 / keyint=360 / keyint_min=2 / scenecut=40 / intra_refresh=0 / rc_lookahead=60 / rc=2pass / mbtree=1 / bitrate=5000 / ratetol=1.0 / qcomp=0.70 / qpmin=0 / qpmax=69 / qpstep=4 / cplxblur=20.0 / qblur=0.5 / vbv_maxrate=50000 / vbv_bufsize=30000 / nal_hrd=none / ip_ratio=1.10 / aq=1:0.80
Default : Да
Forced : Нет
Аудио #1
Идентификатор : 2
Формат : AC-3
Формат/Информация : Audio Coding 3
Расширение режима : CM (complete main)
Параметр Endianness формата : Big
Идентификатор кодека : A_AC3
Продолжительность : 1 ч. 42 м.
Вид битрейта : Постоянный
Битрейт : 192 Кбит/сек
Каналы : 2 канала
Расположение каналов : Front: L R
Частота : 48,0 КГц
Битовая глубина : 16 бит
Метод сжатия : С потерями
Размер потока : 141 Мбайт (3%)
Заголовок : Jetvis Studio
Язык : Russian
Default : Да
Forced : Нет
Аудио #2
Идентификатор : 3
Формат : DTS
Формат/Информация : Digital Theater Systems
Режим : 16
Параметр Endianness формата : Big
Идентификатор кодека : A_DTS
Продолжительность : 1 ч. 42 м.
Вид битрейта : Постоянный
Битрейт : 1509 Кбит/сек
Каналы : 6 каналов
Расположение каналов : Front: L C R, Side: L R, LFE
Частота : 48,0 КГц
Битовая глубина : 24 бит
Метод сжатия : С потерями
Размер потока : 1,08 Гбайт (23%)
Заголовок : Eng
Язык : English
Default : Нет
Forced : Нет
Текст #1
Идентификатор : 4
Формат : UTF-8
Идентификатор кодека : S_TEXT/UTF8
Идентификатор кодека/Информация : UTF-8 Plain Text
Заголовок : SubRip/SRT
Язык : Russian
Default : Нет
Forced : Нет
Текст #2
Идентификатор : 5
Формат : UTF-8
Режим смешивания : zlib
Идентификатор кодека : S_TEXT/UTF8
Идентификатор кодека/Информация : UTF-8 Plain Text
Заголовок : SubRip/SRT
Язык : English
Default : Нет
Forced : Нет
Меню
00:00:00.000 : en:00:00:00.000
00:05:39.339 : en:00:05:39.339
00:09:11.926 : en:00:09:11.926
00:13:45.992 : en:00:13:45.992
00:23:31.118 : en:00:23:31.118
00:28:50.354 : en:00:28:50.354
00:36:31.272 : en:00:36:31.272
00:42:13.781 : en:00:42:13.781
00:45:57.838 : en:00:45:57.838
00:54:10.622 : en:00:54:10.622
00:57:41.583 : en:00:57:41.583
01:03:23.508 : en:01:03:23.508
01:08:16.509 : en:01:08:16.509
01:12:17.583 : en:01:12:17.583
01:20:11.807 : en:01:20:11.807
01:28:02.319 : en:01:28:02.319
Качество видео: BDRip
Формат видео: MKV
Видео: H.264, 1280x534 (16:9), 23.976 fps, ~5000 kbps, ~0.305 bit/pixel
Аудио RUS: 48 kHz, AC3, 2 ch, ~192.00 kbps avg
Аудио ENG: 48 kHz, DTS, 6 ch, ~1509.00 kbps avg

Скриншоты


Яндекс.Метрика
Рейтинг@Mail.ru