Забойный реванш / Grudge Match (Питер Сигал / Peter Segal) [2013 г., комедия, спорт, BDRip, 1080p] Dub [лицензия] + VO (Дмитрий "Гоблин" Пучков) + Original (Eng) + Sub (Rus, Eng)

 

Создавать темы 19-Апр-2014 03:52

-Забойный реванш / Grudge Match
«Когда возраст не имеет значения»
-- Производство: США
Год выпуска: 2013 г.
Жанр: комедия, спорт
Продолжительность: 01:53:16
Мировая премьера: 16 декабря 2013
Российская премьера: 16 января 2014
Дата выхода DVD: 30 апреля 2014
Дата выхода Blu-Ray: 30 апреля 2014
Перевод: Профессиональный (полное дублирование) [Blu-ray CEE]
Перевод 2: Профессиональный (одноголосый) [Гоблин]
Оригинальный аудиопоток: английский
Режиссер: Питер Сигал / Peter Segal-В ролях: Роберт Де Ниро, Сильвестр Сталлоне, Алан Аркин, Ким Бейсингер, Кевин Харт, Джон Бернтал, Кемден Грэй, Пол Бен-Виктор, ЭлЭл Кул Джей, Энтони Андерсон-Описание: Фильм расскажет о двух бывших боксерах, решающих вернуться на ринг ради финального матча, который должен будет уладить все их разногласия.
- -Качество видео: BDRip
Контейнер: MKV
Стандарт разрешения: 1080p
Видео кодек: H.264/AVC
Аудио кодек: AC3, DTS
Видео: 1920x1080 at 23.976 fps, ~15.7 Mbps avg
Аудио: Russian: 48 kHz, AC3, 3/2 (L,C,R,l,r) + LFE ch, ~448.00 kbps avg |Дубляж, Blu-ray CEE|
Аудио #2: Russian: 48 kHz, AC3, 3/2 (L,C,R,l,r) + LFE ch, ~448.00 kbps avg |Одноголосый закадровый, Дмитрий «Гоблин» Пучков, Blu-ray CEE|
Аудио #3: English: 48 kHz, DTS, 3/2 (L,C,R,l,r) + LFE ch, ~1536.00 kbps avg
Cубтитры: Russian (Forced, iTunes), Russian (iTunes), English, English (SDH)

Знаете ли вы, что...

• После финальных титров на стене можно заметить плакат, на котором написано «Сигал против Юинга». Это ссылка на режиссера Питера Сигала и продюсера Майкла Юинга. На том же плакате еще написано «Осбринк против Кинга» — это ссылка на агента голливудских звезд Синди Осбринк (Cindy Osbrink) и боксерского промоутера Дона Кинга.
• Роль Салли (Ким Бейсингер) в молодости сыграла дочь актрисы — Айрленд Болдуин.
• Было снято несколько альтернативных концовок для защиты от возможной утечки информации.
• В перерывах между дублями Садариас Харрелл писал песни для своего дебютного альбома. Когда при этом у него заканчивалась бумага, он начинал писать на денежных банкнотах.

Ошибки в фильме

• Данте облокачивается на сложенный складной верх кузова своего Porsche, разговаривая по телефону. В следующих кадрах, когда он выходит из машины, кузов уже поднят.
• Когда Рейзор и Салли разговаривают перед его домом (через дорогу от железнодорожных путей), фон постоянно меняется после смены кадра — там то стоит поезд, то поезд едет, то его вообще нет.

Media Info

General
Complete name                    : Y:\Uploads\Pirat.Ca\Grudge.Match.2013.1080p.BDRip.2xRus.Eng.mkv
Format                           : Matroska
File size                        : 14.6 GiB
Duration                         : 1h 53mn
Overall bit rate                 : 18.4 Mbps
Movie name                       : Grudge Match (2013) - Release for PIRAT.CA
Encoded date                     : UTC 2014-04-18 16:47:10
Writing application              : mkvmerge v6.0.0 ('Coming Up For Air') built on Jan 20 2013 09:52:00
Writing library                  : libebml v1.3.0 + libmatroska v1.4.0
Video
ID                               : 1
Format                           : AVC
Format/Info                      : Advanced Video Codec
Format profile                   : [email protected]
Format settings, CABAC           : Yes
Format settings, ReFrames        : 4 frames
Muxing mode                      : Container [email protected]
Codec ID                         : V_MPEG4/ISO/AVC
Duration                         : 1h 53mn
Bit rate                         : 15.7 Mbps
Width                            : 1 920 pixels
Height                           : 1 080 pixels
Display aspect ratio             : 16:9
Frame rate                       : 23.976 fps
Color space                      : YUV
Chroma subsampling               : 4:2:0
Bit depth                        : 8 bits
Scan type                        : Progressive
Bits/(Pixel*Frame)               : 0.315
Stream size                      : 12.4 GiB (85%)
Title                            : Grudge Match (2013)
Writing library                  : x264 core 140 r2377+40 929f149 tMod [[email protected]:2:0 X86]
Encoding settings                : cabac=1 / ref=4 / deblock=1:-3:-3 / analyse=0x3:0x113 / me=tesa / subme=10 / psy=1 / fade_compensate=0.00 / psy_rd=1.10:0.00 / mixed_ref=1 / me_range=24 / chroma_me=1 / trellis=2 / 8x8dct=1 / cqm=0 / deadzone=21,11 / fast_pskip=0 / chroma_qp_offset=-2 / threads=12 / lookahead_threads=2 / sliced_threads=0 / nr=0 / decimate=0 / interlaced=0 / bluray_compat=0 / constrained_intra=0 / fgo=0 / bframes=9 / b_pyramid=2 / b_adapt=2 / b_bias=0 / direct=3 / weightb=1 / open_gop=0 / weightp=2 / keyint=250 / keyint_min=23 / scenecut=40 / intra_refresh=0 / rc=crf / mbtree=0 / crf=18.5000 / qcomp=0.70 / qpmin=0:0:0 / qpmax=69:69:69 / qpstep=4 / ip_ratio=1.30 / pb_ratio=1.10 / aq=4:0.80 / aq-sensitivity=10.00 / aq-factor=1.00:1.00:1.00 / aq2=0 / aq3=0
Language                         : English
Audio #1
ID                               : 2
Format                           : AC-3
Format/Info                      : Audio Coding 3
Mode extension                   : CM (complete main)
Codec ID                         : A_AC3
Duration                         : 1h 53mn
Bit rate mode                    : Constant
Bit rate                         : 448 Kbps
Channel(s)                       : 6 channels
Channel positions                : Front: L C R, Side: L R, LFE
Sampling rate                    : 48.0 KHz
Bit depth                        : 16 bits
Stream size                      : 363 MiB (2%)
Title                            : AC3 5.1 @ 448 kbps - DUB, Blu-ray CEE
Language                         : Russian
Audio #2
ID                               : 3
Format                           : AC-3
Format/Info                      : Audio Coding 3
Mode extension                   : CM (complete main)
Codec ID                         : A_AC3
Duration                         : 1h 53mn
Bit rate mode                    : Constant
Bit rate                         : 448 Kbps
Channel(s)                       : 6 channels
Channel positions                : Front: L C R, Side: L R, LFE
Sampling rate                    : 48.0 KHz
Bit depth                        : 16 bits
Stream size                      : 363 MiB (2%)
Title                            : AC3 5.1 @ 448 kbps - AVO, Goblin, Blu-ray CEE
Language                         : Russian
Audio #3
ID                               : 4
Format                           : DTS
Format/Info                      : Digital Theater Systems
Codec ID                         : A_DTS
Duration                         : 1h 53mn
Bit rate mode                    : Constant
Bit rate                         : 1 510 Kbps
Channel(s)                       : 6 channels
Channel positions                : Front: L C R, Side: L R, LFE
Sampling rate                    : 48.0 KHz
Bit depth                        : 24 bits
Video delay                      : 11ms
Stream size                      : 1.19 GiB (8%)
Title                            : DTS 5.1 @ 1536 kbps
Language                         : English
Text #1
ID                               : 5
Format                           : UTF-8
Codec ID                         : S_TEXT/UTF8
Codec ID/Info                    : UTF-8 Plain Text
Title                            : Forced, iTunes
Language                         : Russian
Text #2
ID                               : 6
Format                           : UTF-8
Codec ID                         : S_TEXT/UTF8
Codec ID/Info                    : UTF-8 Plain Text
Title                            : iTunes
Language                         : Russian
Text #3
ID                               : 7
Format                           : UTF-8
Codec ID                         : S_TEXT/UTF8
Codec ID/Info                    : UTF-8 Plain Text
Language                         : English
Text #4
ID                               : 8
Format                           : UTF-8
Codec ID                         : S_TEXT/UTF8
Codec ID/Info                    : UTF-8 Plain Text
Title                            : SDH
Language                         : English
Menu
00:00:00.000                     : en:00:00:00.000
00:10:07.232                     : en:00:10:07.232
00:19:20.785                     : en:00:19:20.785
00:29:24.972                     : en:00:29:24.972
00:39:11.849                     : en:00:39:11.849
00:50:06.003                     : en:00:50:06.003
00:59:09.337                     : en:00:59:09.337
01:09:21.741                     : en:01:09:21.741
01:20:02.464                     : en:01:20:02.464
01:29:20.605                     : en:01:29:20.605
01:39:52.778                     : en:01:39:52.778
01:45:15.935                     : en:01:45:15.935

Скриншоты

Яндекс.Метрика
Рейтинг@Mail.ru