Дела Лоховского (Борис Берзнер) [1993-1997 г.г., комедия, DVDRip]

 

Создавать темы 18-Апр-2014 04:39

-Дела Лоховского-- Производство: Беларусь. Беларусьфильм
Год выпуска: 1993-1997 г.г.
Жанр: комедия
Продолжительность: 01:26:06
Перевод: Отсутствует
Режиссер: Борис Берзнер-В ролях:
Привет от тёзки:
Владимир Голынский, Алексей Булдаков, Александр Владомирский, Мария Захаревич, Иннокентий Сичкарь, Владимир Сичкарь, Светлана Голынская, Яна Голынская, Владимир Грицевский, Вадим Левченко, Владимир Янковский
Лечение по доктору Лоховскому:
Владимир Голынский, Михаил Светин, Елена Внукова, Станислав Садальский, Андрей Бубашкин, Семен Морозов, Михаил Петров, Геннадий Овсянников, Виктор Манаев, Анатолий Кляшторный, Инна Стругач, Александр Кашперов, Владимир Корпусь, Алексей Сорокин, Людмила Разумова, Евгения Ковалёва
Голосовать "за":
Владимир Голынский, Алексей Булдаков, Михаил Светин, Елена Внукова, Александр Подобед, Евгений Крыжановский, Вячеслав Павлють, Максим Воронков, Виталий Урусов, Валерия Арланова Виталий Быков, Анатолий Гурьев, Арина Ястреб, Андрей Олиференко, Георгий Волчек, Елена Христич, Владимир Золотухин, Максим Беспалый, Александр Курлович, Элеонора Езерская-Описание: Альманах состоит из трех новелл - "Привет от тёзки" (1993), "Лечение по доктору Лоховскому" (1997), "Голосовать "за" (1997), снятых по мотивам рассказов О`Генри.
Привет от тёзки:
Матерый торговец крадеными автомобилями Красавчик берет в компаньоны только что отмотавшего очередной срок за угон Васю-Лоха. Вася без напряга взял бы первое место на любом чемпионате по автоугону. Так что перспективы “бизнеса” были у них просто умопомрачительными...
Лечение по доктору Лоховскому:
Фоля, Вася и Коля познакомились в вытрезвителе. Кто бы мог подумать, что этой троице придет гениальная мысль начать «необычное дело» - лечить новым эффективным методом от алкоголизма...
Голосовать "за":
Безумно веселая компания - аферист Красавчик, мэр города и профессиональный угонщик автомобилей Вася по кличке Лох вместе со своей подружкой-стриптизершей Люси - организуют предвыборный штаб по выдвижению "своего кандидата" в депутаты...-Качество видео: DVDRip
Контейнер: AVI
Видео кодек: XviD
Аудио кодек: MP3
Видео: 720x544; 2063 kbps; 25 fps; 0.211 bit/pixel
Аудио: 192 kbps; 2 ch; 48 kHz
Cубтитры: отсутствуют

Media Info

Общее
Полное имя : E:\Torrent\Dela_Lohovskogo_[Pirat.ca].torrent.avi
Формат : AVI
Формат/Информация : Audio Video Interleave
Размер файла : 1,36 Гбайт
Продолжительность : 1 ч. 26 м.
Общий поток : 2264 Кбит/сек
Программа кодирования : VirtualDubMod 1.5.10.2 (build 2540/release)
Библиотека кодирования : VirtualDub build 27700/release
Видео
Идентификатор : 0
Формат : MPEG-4 Visual
Профиль формата : [email protected]
Параметр BVOP формата : 1
Параметр QPel формата : Нет
Параметр GMC формата : Без точки перехода
Параметр матрицы формата : Выборочная
Идентификатор кодека : XVID
Идентификатор кодека/Подсказка : XviD
Продолжительность : 1 ч. 26 м.
Битрейт : 2063 Кбит/сек
Ширина : 720 пикселей
Высота : 544 пикселя
Соотношение сторон : 4:3
Частота кадров : 25,000 кадров/сек
Цветовое пространство : YUV
Субдискретизация насыщенности : 4:2:0
Битовая глубина : 8 бит
Тип развёртки : Прогрессивная
Метод сжатия : С потерями
Бит/(Пиксели*Кадры) : 0.211
Размер потока : 1,24 Гбайт (91%)
Библиотека кодирования : XviD 1.0.1 (UTC 2004-06-05)
Аудио
Идентификатор : 1
Формат : MPEG Audio
Версия формата : Version 1
Профиль формата : Layer 3
Режим : Joint stereo
Расширение режима : MS Stereo
Идентификатор кодека : 55
Идентификатор кодека/Подсказка : MP3
Продолжительность : 1 ч. 26 м.
Вид битрейта : Постоянный
Битрейт : 192 Кбит/сек
Каналы : 2 канала
Частота : 48,0 КГц
Метод сжатия : С потерями
Задержка видео : 336 мс.
Размер потока : 118 Мбайт (8%)
Выравнивание : Соединение по промежуткам
Продолжительность промежутка : 40 мс. (1,00 видеокадр)
Время предзагрузки промежутка : 504 мс.
Библиотека кодирования : LAME3.97

Скриншоты

Раздача

Раздача с 14.00 до 2.30 (время московское)
Яндекс.Метрика
Рейтинг@Mail.ru