Судная ночь / The Purge (Джеймс ДеМонако / James DeMonaco) [2013, США, Триллер, ужасы, BDRip] Dub + Original (Eng) + Subs (Rus, Ukr, Eng)

 

Создавать темы 14-Окт-2013 08:31

Новое
Судная ночь / The Purge
«Одну ночь в году дозволено все. Главное - дожить до рассвета»
- Год выпуска: 2013
Выпущено: США, Франция / Universal Pictures, Platinum Dunes
Жанр: триллер, ужасы
Продолжительность: 01:25:18
Перевод: Профессиональный (полное дублирование) CEE + Оригинальная дорожка
Субтитры: Русские, Украинские, Английские (внешние .srt*)-Режиссер:
Джеймс ДеМонако / James DeMonaco-В ролях:
Итан Хоук (James Sandin), Лина Хиди (Mary Sandin), Макс Буркхолдер (Charlie Sandin), Аделаида Кэйн (Zoey Sandin), Эдвин Ходж (Bloody Stranger), Риз Уэйкфилд (Polite Leader), Тони Оллер (Henry), Ария Барейкис (Mrs. Grace Ferrin), Том Йи (Mr. Cali), Крис Малки (Mr. Halverson)-Описание:
Мир будущего — мир без преступности… безработицы… войн. И все это благодаря одной ночи в году, когда можно отправить на тот свет любого — злобного босса, шумных соседей, надоевших родственников. В Судную ночь дозволено все — главное дожить до рассвета.-| КиноПоиск | Сэмпл |-Качество: BDRip [The.Purge.2013.1080p.BluRay.AVC.DTS-HD.MA.5.1-PublicHD]
Формат: AVI
Видео: 720x304 (2.37:1), 23.976 fps, XviD build 73 ~1977 kbps avg, 0.38 bit/pixel
Аудио #1: 48 kHz, AC3 Dolby Digital, 3/2 (L,C,R,l,r) + LFE ch, ~448.00 kbps avg (RUS)
Аудио #2: 48 kHz, AC3 Dolby Digital, 3/2 (L,C,R,l,r) + LFE ch, ~448.00 kbps avg (ENG) отдельно
-

Скриншоты

MediaInfo

General
Complete name : D:\Sudnaya_noch`_2013_BDRip_by_Dalemake.avi
Format : AVI
Format/Info : Audio Video Interleave
File size : 1.45 GiB
Duration : 1h 25mn
Overall bit rate : 2 434 Kbps
Writing application : VirtualDubMod 1.5.10.3 | www.virtualdub-fr.org || (build 2550/release)
Writing library : VirtualDubMod build 2550/release
Video
ID : 0
Format : MPEG-4 Visual
Format profile : Advanced [email protected]
Format settings, BVOP : 1
Format settings, QPel : No
Format settings, GMC : No warppoints
Format settings, Matrix : Custom
Codec ID : XVID
Codec ID/Hint : XviD
Duration : 1h 25mn
Bit rate : 1 978 Kbps
Width : 720 pixels
Height : 304 pixels
Display aspect ratio : 2.35:1
Frame rate : 23.976 fps
Color space : YUV
Chroma subsampling : 4:2:0
Bit depth : 8 bits
Scan type : Progressive
Compression mode : Lossy
Bits/(Pixel*Frame) : 0.377
Stream size : 1.18 GiB (81%)
Writing library : XviD 73
Audio
ID : 1
Format : AC-3
Format/Info : Audio Coding 3
Mode extension : CM (complete main)
Format settings, Endianness : Big
Codec ID : 2000
Duration : 1h 25mn
Bit rate mode : Constant
Bit rate : 448 Kbps
Channel(s) : 6 channels
Channel positions : Front: L C R, Side: L R, LFE
Sampling rate : 48.0 KHz
Bit depth : 16 bits
Compression mode : Lossy
Stream size : 273 MiB (18%)
Alignment : Split accross interleaves
Interleave, duration : 42 ms (1.00 video frame)
Interleave, preload duration : 500 ms
-

Создавать темы 26-Янв-2016 20:20 (спустя 2 года 3 месяца)

Топик был перенесен из форума Зарубежные Новинки (HD*Rip/LQ, DVDRip) в форум Зарубежные Фильмы (HD*Rip/LQ, DVDRip, SATRip, VHSRip)
T_O_M
Яндекс.Метрика
Рейтинг@Mail.ru