[ Сегодня на трекере фрилич! Идет свободное скачивание без начисления Download ]

Хоббит: Пустошь Смауга 3Д / The Hobbit: The Desolation of Smaug 3D (Питер Джексон / Peter Jackson) [2013 г., Фэнтези, Приключения, BDRip, 1080p, Half OverUnder / Вертикальная анаморфная стереопара] Dub + Sub (Rus) + Original (Eng)

 

Создавать темы 10-Апр-2014 02:40

-Хоббит: Пустошь Смауга 3Д / The Hobbit: The Desolation of Smaug 3D- Производство: США, Новая Зеландия (Warner Bros. Pictures, New Line Cinema, Metro Goldwyn Mayer)
Год выпуска: 2013 г.
Жанр: Фэнтези, Приключения
Продолжительность: 2:41:17
Мировая премьера: 2 декабря 2013
Российская премьера: 18 декабря 2013, «Каро-Премьер»
Дата выхода DVD: 17 апреля 2014, «CP Дистрибуция»
Дата выхода Blu-Ray: 17 апреля 2014, «CP Дистрибуция»
Перевод: Профессиональный (полное дублирование)
Оригинальный аудиопоток: английский
Режиссер: Питер Джексон / Peter Jackson-В ролях: Мартин Фриман (Bilbo), Ричард Армитедж (Thorin), Иэн МакКеллен (Gandalf), Эванджелин Лилли (Tauriel), Орландо Блум (Legolas), Люк Эванс (Bard / Girion), Бенедикт Камбербэтч (Smaug / Necromancer), Ли Пейс (Thranduil), Кен Стотт (Balin), Эйдан Тернер (Kili), Грэм МакТавиш (Dwalin), Джеймс Несбитт (Bofur)-Описание: Продолжение путешествия хоббита Бильбо Бэггинса, волшебника Гэндальфа и 13 отважных гномов. Их компания обязана завершить своё путешествие к Одинокой горе. Там они должны встретиться с величайшей опасностью из всех — созданием куда более ужасающим, чем все их прошлые противники, которое проверит на прочность не только их мужество, но крепость их дружбы и правильность-Качество видео: BDRip
Контейнер: MKV
Формат 3D: Half OverUnder / Анаморфная вертикальная стереопара
Порядок ракурсов: левый ракурс первый
Стандарт разрешения: 1080p
Видео кодек: x.264
Аудио кодек: AC3-Видео: AVC / 23,976 fps / 1920х1080p / ~8.5 Mbps
Аудио #1: AC3 / 48 KHz / 5.1 ch / 448 Kbps (Дубляж - BD CEE)
Аудио #2: AC3 / 48 KHz / 5.1 ch / 640 Kbps (Original)
Cубтитры: softsub (SRT)
Вшитые - Русские Форсированные (в т.ч. на речь эльфов и орков) включены по умолчанию
Внешние (UTF-8) - Русские Полные

Media Info

General
Unique ID : 216126324916471313951301124959123697562 (0xA2986A850D196DE6B805FFE46AAE6F9A)
Complete name : D:\TheHobbit2(2013)3D-halfOU\The_Hobbit_2_(2013)3D-halfOU.mkv
Format : Matroska
Format version : Version 2
File size : 11.0 GiB
Duration : 2h 41mn
Overall bit rate : 9 759 Kbps
Movie name : Хоббит: Пустошь Смауга / The Hobbit: The Desolation of Smaug (2013) 3D
Encoded date : UTC 2014-04-08 16:56:56
Writing application : mkvmerge v4.9.1 ('Ich will') сборка от Jul 11 2011 23:53:15
Writing library : libebml v1.2.1 + libmatroska v1.1.1
Video
ID : 1
Format : AVC
Format/Info : Advanced Video Codec
Format profile : [email protected]
Format settings, CABAC : Yes
Format settings, ReFrames : 4 frames
Muxing mode : Header stripping
Codec ID : V_MPEG4/ISO/AVC
Duration : 2h 41mn
Bit rate : 8 477 Kbps
Width : 1 920 pixels
Height : 1 080 pixels
Display aspect ratio : 16:9
Frame rate mode : Constant
Frame rate : 23.976 fps
Color space : YUV
Chroma subsampling : 4:2:0
Bit depth : 8 bits
Scan type : Progressive
Bits/(Pixel*Frame) : 0.171
Stream size : 9.55 GiB (87%)
Title : BDRip (v2) by Ash61
Writing library : x264 core 129 r2245 bc13772
Encoding settings : cabac=1 / ref=4 / deblock=1:-3:-3 / analyse=0x3:0x113 / me=umh / subme=10 / psy=1 / psy_rd=1.00:0.15 / mixed_ref=1 / me_range=32 / chroma_me=1 / trellis=2 / 8x8dct=1 / cqm=0 / deadzone=21,11 / fast_pskip=1 / chroma_qp_offset=-3 / threads=12 / lookahead_threads=2 / sliced_threads=0 / nr=0 / decimate=1 / interlaced=0 / bluray_compat=0 / constrained_intra=0 / bframes=10 / b_pyramid=2 / b_adapt=2 / b_bias=0 / direct=3 / weightb=1 / open_gop=0 / weightp=2 / keyint=250 / keyint_min=23 / scenecut=40 / intra_refresh=0 / rc_lookahead=60 / rc=crf / mbtree=1 / crf=17.0 / qcomp=0.70 / qpmin=0 / qpmax=69 / qpstep=4 / vbv_maxrate=40000 / vbv_bufsize=30000 / crf_max=0.0 / nal_hrd=none / frame-packing=4 / ip_ratio=1.40 / aq=1:0.70
Language : English
Default : Yes
Forced : No
Audio #1
ID : 2
Format : AC-3
Format/Info : Audio Coding 3
Mode extension : CM (complete main)
Format settings, Endianness : Big
Muxing mode : Header stripping
Codec ID : A_AC3
Duration : 2h 41mn
Bit rate mode : Constant
Bit rate : 448 Kbps
Channel count : 6 channels
Channel positions : Front: L C R, Side: L R, LFE
Sampling rate : 48.0 KHz
Bit depth : 16 bits
Compression mode : Lossy
Stream size : 517 MiB (5%)
Title : Дубляж - BD CEE
Language : Russian
Default : Yes
Forced : No
Audio #2
ID : 3
Format : AC-3
Format/Info : Audio Coding 3
Mode extension : CM (complete main)
Format settings, Endianness : Big
Muxing mode : Header stripping
Codec ID : A_AC3
Duration : 2h 41mn
Bit rate mode : Constant
Bit rate : 640 Kbps
Channel count : 6 channels
Channel positions : Front: L C R, Side: L R, LFE
Sampling rate : 48.0 KHz
Bit depth : 16 bits
Compression mode : Lossy
Stream size : 738 MiB (7%)
Title : Original
Language : English
Default : No
Forced : No
Text
ID : 4
Format : UTF-8
Codec ID : S_TEXT/UTF8
Codec ID/Info : UTF-8 Plain Text
Title : Форсированные (в т.ч. на речь эльфов и орков) - iTunes
Language : Russian
Default : Yes
Forced : No
Menu
00:00:00.000 : :1. The Quest for Erebor
00:05:44.094 : :2. Wilderland
00:10:10.985 : :3. The Master Summons
00:11:10.128 : :4. A Commander of Legions
00:13:50.204 : :5. Queer Lodgings
00:17:12.657 : :6. The Elven-Gate
00:21:25.326 : :7. Mirkwood
00:24:33.472 : :8. Flies and Spiders
00:33:03.273 : :9. The Woodland Realm
00:36:05.747 : :10. The Elvenking
00:39:38.960 : :11. King and Captain
00:41:29.654 : :12. Feast of Starlight
00:44:27.290 : :13. Barrels Out of Bond
00:55:01.757 : :14. The High Fells
00:58:41.768 : :15. Bard the Bowman
01:02:05.138 : :16. The Nature of Evil
01:05:29.592 : :17. Smuggled Cargo
01:09:06.267 : :18. Lake-Town
01:11:29.118 : :19. The Master of Lake-Town
01:13:11.762 : :20. The Home of Bard, Part 1
01:15:09.450 : :21. The Home of Bard, Part 2
01:19:14.959 : :22. "It Is Our Fight"
01:20:48.469 : :23. The Prophecy
01:23:12.529 : :24. A Warm Welcome
01:27:09.641 : :25. The Lonely Mountain
01:30:45.482 : :26. A Spell of Consealment
01:33:29.813 : :27. On the Doorstep
01:41:57.194 : :28. Kingsfoil
01:42:24.472 : :29. The Courage of Hobbits
01:44:08.033 : :30. The Enemy Revealed
01:47:34.114 : :31. Inside Information
01:56:46.333 : :32. The Black Arrow
01:57:28.917 : :33. In the Dragon's Lair
01:58:03.410 : :34. Under Arrest
01:59:42.300 : :35. Bilbo the Burglar
02:01:30.575 : :36. Smaug the Magnificent
02:04:04.312 : :37. Orc Attack
02:07:58.462 : :38. Confrontations
02:09:43.109 : :39. Elvish Medicine
02:10:58.642 : :40. Hunter and Hunted
02:12:31.443 : :41. "She Walks in Starlight"
02:13:54.318 : :42. A Desperate Plan
02:16:25.427 : :43. Duel in Lake-Town
02:18:51.490 : :44. The Forges Relit
02:26:03.588 : :45. Smaug the Golden
02:30:51.209 : :46. Credits

Скриншоты

Яндекс.Метрика
Рейтинг@Mail.ru