[ Сегодня на трекере фрилич! Идет свободное скачивание без начисления Download ]

Геракл: Начало легенды / The Legend of Hercules (Ренни Харлин / Renny Harlin) [2014 г., боевик, фэнтези, BDRip, 720p] Dub [Чистый звук]

 

Создавать темы 07-Апр-2014 02:32

-Геракл: Начало легенды / The Legend of Hercules-«Every man has a destiny»- Производство: США, Болгария / Millennium Films
Год выпуска: 2014 г.
Жанр: боевик, фэнтези
Продолжительность: 01:38:28
Мировая премьера: 8 января 2014
Российская премьера: 23 января 2014, «Наше Кино»
Перевод: Профессиональный (полное дублирование) [Чистый звук]-Режиссер: Ренни Харлин / Renny Harlin
В ролях: Келлан Латс, Джая Уайсс, Скотт Эдкинс, Роксанна МакКи, Лайам Гэрриган, Лиам МакИнтайр, Раде Шербеджия, Джонатон Шек, Люк Ньюберри, Кеннет Крэнэм-Описание:-200 г. до н. э. Древняя Греция. Прекрасная царица Алкмена попала под чары грозного бога Олимпа — Зевса и родила ему сына Геракла. При рождении ему было предсказано стать величайшим воином, который будет властвовать над народами и принесет мир и процветание своей стране. Но пока Геракл ничего не знает о своем предназначении. Он вырос прекрасным и сильным юношей. Он мечтает о любви принцессы Крита, Гебы, которая обещана в жены его брату. Когда Геракл узнает о своей великой миссии, он должен выбрать: сбежать со своей любовью или исполнить свое предназначение. Ему предстоит сразиться с кентавром, победить гигантов, выросших из зубов дракона, перехитрить богинь Судьбы, спасти свою возлюбленную Гебу и выйти на бой со своим злейшим врагом — сыном бога войны Ареса.-Качество видео: BDRip
Контейнер: MKV
Стандарт разрешения: 720p
Видео кодек: AVC (H 264)
Аудио кодек: AC3
Видео: 1280x538 (2.40:1), 4724 Kbps, 23.976 fps, 0.286 bit/pixel
Аудио: AC3, 192 Kbps, 2 ch, 48.0 KHz
Cубтитры: отсутствуют
Дополнительно: Сохранены оригинальные чаптеры

Media Info

General
Unique ID                                : 242436189416081369838263809811083167130 (0xB66382FD75280843A351122E24D8059A)
Complete name                            : C:\Users\Admin\Desktop\The.Legend.of.Hercules.2014.BDRip.720p.[Pirat.ca].mkv
Format                                   : Matroska
Format version                           : Version 2
File size                                : 3.46 GiB
Duration                                 : 1h 38mn
Overall bit rate                         : 5 015 Kbps
Encoded date                             : UTC 2014-04-06 16:40:35
Writing application                      : mkvmerge v4.7.0 ('Just Like You Imagined') сборка от Apr 21 2011 01:13:14
Writing library                          : libebml v1.2.0 + libmatroska v1.1.0
Video
ID                                       : 1
Format                                   : AVC
Format/Info                              : Advanced Video Codec
Format profile                           : [email protected]
Format settings, CABAC                   : Yes
Format settings, ReFrames                : 5 frames
Codec ID                                 : V_MPEG4/ISO/AVC
Duration                                 : 1h 38mn
Bit rate                                 : 4 724 Kbps
Width                                    : 1 280 pixels
Height                                   : 538 pixels
Display aspect ratio                     : 2.40:1
Frame rate mode                          : Constant
Frame rate                               : 23.976 fps
Color space                              : YUV
Chroma subsampling                       : 4:2:0
Bit depth                                : 8 bits
Scan type                                : Progressive
Bits/(Pixel*Frame)                       : 0.286
Stream size                              : 3.25 GiB (94%)
Language                                 : English
Default                                  : Yes
Forced                                   : No
Audio
ID                                       : 2
Format                                   : AC-3
Format/Info                              : Audio Coding 3
Mode extension                           : CM (complete main)
Format settings, Endianness              : Big
Codec ID                                 : A_AC3
Duration                                 : 1h 38mn
Bit rate mode                            : Constant
Bit rate                                 : 192 Kbps
Channel(s)                               : 2 channels
Channel positions                        : Front: L R
Sampling rate                            : 48.0 KHz
Bit depth                                : 16 bits
Compression mode                         : Lossy
Stream size                              : 135 MiB (4%)
Title                                    : Dub (Line)
Language                                 : Russian
Default                                  : Yes
Forced                                   : No
Menu
00:00:00.000                             : en:00:00:00.000
00:14:07.221                             : en:00:14:07.221
00:36:13.546                             : en:00:36:13.546
00:58:32.676                             : en:00:58:32.676
01:18:37.630                             : en:01:18:37.630
01:29:12.806                             : en:01:29:12.806

Скриншоты

Яндекс.Метрика
Рейтинг@Mail.ru