[ Сегодня на трекере фрилич! Идет свободное скачивание без начисления Download ]

Потрошители / Repo Men (Мигель Сапочник / Miguel Sapochnik) [2010 г., фантастика, боевик, триллер, криминал, BDRip, 1080p] [UNRATED] Dub + Original (Eng) + Sub (Rus, Eng, Spa)

 

Создавать темы 07-Апр-2014 02:29

-Потрошители / Repo Men
«Мы идем к должникам»
-- Производство: США
Год выпуска: 2010 г.
Жанр: фантастика, боевик, триллер, криминал
Продолжительность: 02:21:53
Мировая премьера: 19 марта 2010
Российская премьера: 1 апреля 2010
Дата выхода Blu-Ray: 24 августа 2010
Перевод: Профессиональный (полное дублирование) [Blu-Ray СЕЕ]
Оригинальный аудиопоток: английский
Режиссер: Мигель Сапочник / Miguel Sapochnik-В ролях: Джуд Лоу, Форест Уитакер, Алиси Брага, Лив Шрайбер, Кэрис Ван Хаутен, Чандлер Кентербери, Джо Пинг, Лиза Лапира, Тиффани Эспенсен, Ивет Николь Браун-Описание: В недалеком будущем искусственные органы будут доступны всем и даже в кредит. Если же человек не в состоянии оплатить долг, то принимаются крайне жесткие меры. Однажды к нему в дом может вломиться Потрошитель, который способен подавить любое сопротивление и должен изъять из него искусственный орган, собственность компании Union. Реми как раз такой - и охотник, и жертва - он Потрошитель, и он же не может оплатить пересадку сердца, а посему вынужден пуститься в бега...
-Качество видео: BDRip
Контейнер: MKV
Стандарт разрешения: 1080p
Видео кодек: H.264/AVC
Аудио кодек: DTS
Видео: 1920x816 at 23.976 fps, ~8707 Kbps avg
Аудио: Russian: 48 kHz, DTS, 3/2 (L,C,R,l,r) + LFE ch, ~768.00 kbps avg
Аудио #2: English: 48 kHz, DTS, 3/2 (L,C,R,l,r) + LFE ch, ~1536.00 kbps avg
Cубтитры: Russian (voronine), Russian (voronine - SDH), Russian (voronine - coloured), Russian (voronine - SDH - coloured),English, Spanish

Media Info

General
Format                           : Matroska
File size                        : 11.1 GiB
Duration                         : 2h 21mn
Overall bit rate                 : 11.2 Mbps
Movie name                       : Repo Men (2010) - Release for PIRAT.CA
Encoded date                     : UTC 2014-04-06 17:35:34
Writing application              : mkvmerge v6.0.0 ('Coming Up For Air') built on Jan 20 2013 09:52:00
Writing library                  : libebml v1.3.0 + libmatroska v1.4.0
Video
ID                               : 1
Format                           : AVC
Format/Info                      : Advanced Video Codec
Format profile                   : [email protected]
Format settings, CABAC           : Yes
Format settings, ReFrames        : 5 frames
Muxing mode                      : Container [email protected]
Codec ID                         : V_MPEG4/ISO/AVC
Duration                         : 2h 21mn
Bit rate                         : 8 707 Kbps
Nominal bit rate                 : 11.0 Mbps
Width                            : 1 920 pixels
Height                           : 816 pixels
Display aspect ratio             : 2.35:1
Frame rate                       : 23.976 fps
Color space                      : YUV
Chroma subsampling               : 4:2:0
Bit depth                        : 8 bits
Scan type                        : Progressive
Bits/(Pixel*Frame)               : 0.232
Stream size                      : 8.63 GiB (78%)
Title                            : Repo Men (2010)
Writing library                  : x264 core 104 r1683 62997d6
Encoding settings                : cabac=1 / ref=5 / deblock=1:-3:-3 / analyse=0x3:0x113 / me=tesa / subme=10 / psy=1 / psy_rd=0.90:0.00 / mixed_ref=1 / me_range=16 / chroma_me=1 / trellis=2 / 8x8dct=1 / cqm=0 / deadzone=21,11 / fast_pskip=0 / chroma_qp_offset=-2 / threads=12 / sliced_threads=0 / nr=0 / decimate=0 / interlaced=0 / constrained_intra=0 / bframes=6 / b_pyramid=2 / b_adapt=2 / b_bias=0 / direct=3 / weightb=1 / open_gop=1 / weightp=2 / keyint=250 / keyint_min=23 / scenecut=40 / intra_refresh=0 / rc=2pass / mbtree=0 / bitrate=11000 / ratetol=1.0 / qcomp=0.60 / qpmin=10 / qpmax=51 / qpstep=4 / cplxblur=20.0 / qblur=0.5 / ip_ratio=1.40 / pb_ratio=1.30 / aq=1:0.70
Language                         : English
Audio #1
ID                               : 2
Format                           : DTS
Format/Info                      : Digital Theater Systems
Codec ID                         : A_DTS
Duration                         : 2h 21mn
Bit rate mode                    : Constant
Bit rate                         : 755 Kbps
Channel(s)                       : 6 channels
Channel positions                : Front: L C R, Side: L R, LFE
Sampling rate                    : 48.0 KHz
Bit depth                        : 24 bits
Stream size                      : 766 MiB (7%)
Title                            : DTS 5.1 @ 768 kbps - Дублированный
Language                         : Russian
Audio #2
ID                               : 3
Format                           : DTS
Format/Info                      : Digital Theater Systems
Codec ID                         : A_DTS
Duration                         : 2h 21mn
Bit rate mode                    : Constant
Bit rate                         : 1 510 Kbps
Channel(s)                       : 6 channels
Channel positions                : Front: L C R, Side: L R, LFE
Sampling rate                    : 48.0 KHz
Bit depth                        : 24 bits
Stream size                      : 1.50 GiB (13%)
Title                            : DTS 5.1 @ 1536 kbps
Language                         : English
Text #1
ID                               : 4
Format                           : UTF-8
Codec ID                         : S_TEXT/UTF8
Codec ID/Info                    : UTF-8 Plain Text
Title                            : Voronine
Language                         : Russian
Text #2
ID                               : 5
Format                           : UTF-8
Codec ID                         : S_TEXT/UTF8
Codec ID/Info                    : UTF-8 Plain Text
Title                            : Voronine (SDH)
Language                         : Russian
Text #3
ID                               : 6
Format                           : UTF-8
Codec ID                         : S_TEXT/UTF8
Codec ID/Info                    : UTF-8 Plain Text
Title                            : Voronine - coloured
Language                         : Russian
Text #4
ID                               : 7
Format                           : UTF-8
Codec ID                         : S_TEXT/UTF8
Codec ID/Info                    : UTF-8 Plain Text
Title                            : Voronine (SDH) - coloured
Language                         : Russian
Text #5
ID                               : 8
Format                           : UTF-8
Codec ID                         : S_TEXT/UTF8
Codec ID/Info                    : UTF-8 Plain Text
Language                         : English
Text #6
ID                               : 9
Format                           : UTF-8
Codec ID                         : S_TEXT/UTF8
Codec ID/Info                    : UTF-8 Plain Text
Language                         : Spanish
Menu
00:00:00.000                     : :1. No Need For Violence
00:05:25.659                     : :2. The Union
00:11:04.080                     : :3. A Job's a Job
00:17:51.654                     : :4. Just A Kidney
00:24:19.541                     : :5. Enforcing The Rules
00:27:57.259                     : :6. Knockout #3
00:32:25.068                     : :7. You're A Very Lucky Man
00:41:45.503                     : :8. Past Due
00:48:22.858                     : :9. Two Pieces Of The Same Puzzle
00:52:38.906                     : :10. Robbing Banks
00:56:50.157                     : :11. Artificial Everything
01:02:16.691                     : :12. A Cautionary Tale
01:06:25.481                     : :13. Jumping Credit
01:11:15.313                     : :14. Security Jam
01:21:25.839                     : :15. Can't Go Back
01:27:19.025                     : :16. No Escape
01:34:07.809                     : :17. Wipe The System
01:40:56.050                     : :18. Scanning Out
01:49:25.016                     : :19. Sweet Dreams
01:53:19.459                     : :20. End Titles

Скриншоты

Яндекс.Метрика
Рейтинг@Mail.ru