[ Сегодня на трекере фрилич! Идет свободное скачивание без начисления Download ]

Посланники / The Messengers (Оксид Пан / Oxide Pang Chun, Дэнни Пан / Danny Pang) [2007 г., ужасы, триллер, драма, BDRip] Dub [Лицензия]

 

Создавать темы 06-Апр-2014 17:23

-Посланники / The Messengers-««Считается, что дети более восприимчивы к паранормальным явлениям. Они видят то, что недоступно взрослым. Они верят в то, что взрослые отказываются понимать. И они хотят предупредить нас!»»- Производство: США / Screen Gems, Ghost House Pictures, Columbia Pictures
Год выпуска: 2007 г.
Жанр: ужасы, триллер, драма
Продолжительность: 01:30:26
Мировая премьера: 2 февраля 2007
Российская премьера: 14 июня 2007, «Централ Партнершип»
Дата выхода DVD: 12 июля 2007, «CP-Digital»
Перевод: Профессиональный (полное дублирование) [Лицензия]-Режиссер: Оксид Пан / Oxide Pang Chun, Дэнни Пан / Danny Pang
В ролях: Кристен Стюарт, Дилан МакДермотт, Пенелопа Энн Миллер, Джон Корбетт, Ивэн Тернер, Теодор Тернер, Уильям Б. Дэвис, Брент Бриско, Дастин Миллиган, Джоделль Ферланд-Описание:-Cемья Соломон оставляет свою размеренную жизнь в Чикаго ради того, чтобы пожить на уединенной ферме в Северной Дакоте. Среди усыпанных подсолнухами идиллических полей, шестнадцатилетняя Джесс очень скоро понимает, каким кошмаром может обернуться уединение. Сразу после переезда, Джесс и ее трехлетний брат Бен видят зловещих призраков, которых никто кроме них не замечает.
Когда призраки начинают вести себя агрессивно, у родителей появляются сомнения в психическом здоровье Джесс. Ее не безоблачное прошлое сталкивается с прошлым тех, кто когда-то жил в этом доме — опасное соседство для раздираемого противоречиями подростка. Ей не верят те, кого она отчаянно пытается предупредить, пока еще не слишком поздно…-Качество видео: BDRip
Контейнер: AVI
Видео кодек: XviD
Аудио кодек: AC3
Видео: 704x384 (1.83:1), 23.976 fps, XviD build 57 ~1904 kbps avg, 0.29 bit/pixel
Аудио: 48 kHz, AC3 Dolby Digital, 3/2 (L,C,R,l,r) + LFE ch, ~384 kbps
Cубтитры: отсутствуют

Media Info

General
Complete name                            : D:\Poslanniki.2007.RUS.BDRip.XviD.AC3.avi
Format                                   : AVI
Format/Info                              : Audio Video Interleave
File size                                : 1.45 GiB
Duration                                 : 1h 30mn
Overall bit rate                         : 2 298 Kbps
Movie name                               : The Messengers (2007) BDRip
Genre                                    : Drama/Horror/Thriller
Writing application                      : VirtualDubModRus 1.5.10.2 (build 2542/release)
Video
ID                                       : 0
Format                                   : MPEG-4 Visual
Format profile                           : Advanced [email protected]
Format settings, BVOP                    : 1
Format settings, QPel                    : No
Format settings, GMC                     : No warppoints
Format settings, Matrix                  : Custom
Codec ID                                 : XVID
Codec ID/Hint                            : XviD
Duration                                 : 1h 30mn
Bit rate                                 : 1 904 Kbps
Width                                    : 704 pixels
Height                                   : 384 pixels
Display aspect ratio                     : 1.85:1
Frame rate                               : 23.976 fps
Color space                              : YUV
Chroma subsampling                       : 4:2:0
Bit depth                                : 8 bits
Scan type                                : Progressive
Compression mode                         : Lossy
Bits/(Pixel*Frame)                       : 0.294
Stream size                              : 1.20 GiB (83%)
Writing library                          : XviD 57
Audio
ID                                       : 1
Format                                   : AC-3
Format/Info                              : Audio Coding 3
Mode extension                           : CM (complete main)
Format settings, Endianness              : Big
Codec ID                                 : 2000
Duration                                 : 1h 30mn
Bit rate mode                            : Constant
Bit rate                                 : 384 Kbps
Channel(s)                               : 6 channels
Channel positions                        : Front: L C R, Side: L R, LFE
Sampling rate                            : 48.0 KHz
Bit depth                                : 16 bits
Compression mode                         : Lossy
Stream size                              : 248 MiB (17%)
Alignment                                : Split accross interleaves
Interleave, duration                     : 42 ms (1.00 video frame)
Interleave, preload duration             : 500 ms

Скриншоты

Яндекс.Метрика
Рейтинг@Mail.ru