Помощники / The Helpers (Крис Стоукс)(2012,ужасы, триллер) WEB-DLRip от Deadmauvlad | D

 

Создавать темы 03-Апр-2014 10:24

Информация о фильме
Название: Помощники
Оригинальное название: The Helpers
Жанр: ужасы, триллер
Год выпуска: 2012
Режиссер: Крис Стоукс
В ролях: Кристен Куинтрелл, Денис Лоутон, Кристофер Джонс, Джо Райт, Рэйчел Стерлинг, Блэк Томас, Дастин Хэрниш, Камерон Дискин, Брэкстон Дэвис, Даллас Ловато
О фильме:
Веселая компания из семерых друзей решает отправиться в Лас-Вегас и заснять свое путешествие на видео. К сожалению, их планы нарушаются, когда одно из колес оказывается пробитым, а заменить его самостоятельно молодые люди не могут. Ребята решают остановиться в уютном мотеле, где их тепло приветствует вежливый и располагающий к общению персонал.
Получив уверения, что их машину починят как можно быстрее, ребята успокаиваются и продолжают снимать на видео свои приключения, даже не подозревая, что очень скоро поездка превратится в настоящий кошмар. В их номерах тоже стоят камеры, а приятный в общении персонал гостиницы всегда готов подсобить... в путешествии на тот свет. Выбрав этот мотель, молодые люди подписали себе смертный приговор – здесь обитают самые настоящие маньяки, которые преследуют собственные извращенные цели. Но вот какие именно? Если кому-то из наших героев удастся выжить в этом аду, может, он и поймет, ради чего все затевалось.


Выпущено: США
Продолжительность: 01:21:04 (Полный перевод включая последнюю сцену)
Озвучивание: Дублированное [Back Board Cinema ]
Размер: 1.50 GB
Файл
Формат: AVI
Качество: WEB-DLRip
Видео: 720x304 (2.37:1), 23.976 fps, XviD build 73 ~2286 kbps avg, 0.44 bit/pixel
Аудио:
Audio #1: 48 kHz, AC3 Dolby Digital, 2/0 (L,R) ch, ~192.00 kbps avg [RUS]
Audio #2: 48 kHz, AC3 Dolby Digital, 2/0 (L,R) ch, ~192.00 kbps avg [ENG]

MI

Общее
Полное имя : D:Рипы выкладка [Deadmauvlad]Рипы готовыеThe.Helpers.2012.WEB-DLRip.1.48.GB.D.Deadmauvlad.avi
Формат : AVI
Формат/Информация : Audio Video Interleave
Размер файла : 1,52 Гбайт
Продолжительность : 1 ч. 21 м.
Общий поток : 2685 Кбит/сек
Название фильма : The.Helpers.2012.WEB-DLRip.1.46 GB.Deadmauvlad
Режиссёр : Deadmauvlad
Жанр : Ужасы,Триллер
Программа кодирования : VirtualDubMod 1.5.10.3 | www.virtualdub-fr.org || (build 2550/release)
Библиотека кодирования : VirtualDubMod build 2550/release
Формат оригинала/Имя : Фильм
Правообладатель : Goldenshara
Примечание : Дубляж от Back Board Cinema
Видео
Идентификатор : 0
Формат : MPEG-4 Visual
Профиль формата : Advanced [email protected]
Параметр BVOP формата : 1
Параметр QPel формата : Нет
Параметр GMC формата : Без точки перехода
Параметр матрицы формата : Выборочная
Идентификатор кодека : XVID
Идентификатор кодека/Подсказка : XviD
Продолжительность : 1 ч. 21 м.
Битрейт : 2287 Кбит/сек
Ширина : 720 пикселей
Высота : 304 пикселя
Соотношение сторон : 2,35:1
Частота кадров : 23,976 кадра/сек
Цветовое пространство : YUV
Субдискретизация насыщенности : 4:2:0
Битовая глубина : 8 бит
Тип развёртки : Прогрессивная
Метод сжатия : С потерями
Бит/(Пиксели*Кадры) : 0.436
Размер потока : 1,30 Гбайт (85%)
Библиотека кодирования : XviD 73
Аудио #1
Идентификатор : 1
Формат : AC-3
Формат/Информация : Audio Coding 3
Расширение режима : CM (complete main)
Параметр Endianness формата : Big
Идентификатор кодека : 2000
Продолжительность : 1 ч. 21 м.
Вид битрейта : Постоянный
Битрейт : 192 Кбит/сек
Каналы : 2 канала
Расположение каналов : Front: L R
Частота : 48,0 КГц
Битовая глубина : 16 бит
Метод сжатия : С потерями
Размер потока : 111 Мбайт (7%)
Выравнивание : Разделение по промежуткам
Продолжительность промежутка : 42 мс. (1,00 видеокадр)
Время предзагрузки промежутка : 500 мс.
Аудио #2
Идентификатор : 2
Формат : AC-3
Формат/Информация : Audio Coding 3
Расширение режима : CM (complete main)
Параметр Endianness формата : Big
Идентификатор кодека : 2000
Продолжительность : 1 ч. 21 м.
Вид битрейта : Постоянный
Битрейт : 192 Кбит/сек
Каналы : 2 канала
Расположение каналов : Front: L R
Частота : 48,0 КГц
Битовая глубина : 16 бит
Метод сжатия : С потерями
Размер потока : 111 Мбайт (7%)
Выравнивание : Разделение по промежуткам
Продолжительность промежутка : 42 мс. (1,00 видеокадр)
Время предзагрузки промежутка : 500 мс.
Яндекс.Метрика
Рейтинг@Mail.ru