Va-банк / Runner Runner (Брэд Фурман / Brad Furman) [2013 г., Триллер, драма, криминал, HDRip] AVO (Гаврилов)

 

Создавать темы 03-Апр-2014 06:37

-Va-банк / Runner Runner-- Год выпуска: 2013
Производство: США, 20 Сentury Fox, New Regency Pictures
Жанр: Триллер, драма, криминал
Продолжительность: 01:31:31-Перевод: Авторский (одноголосый, закадровый) Гаврилов-Субтитры: отсутствуют
Режиссер: Брэд Фурман / Brad Furman
В ролях: Джастин Тимберлэйк, Бен Аффлек, Джемма Артертон, Энтони Маки, Майкл Эспер, Оливер Купер, Кристиан Джордж, Юл Васкез, Джон Хёрд, Джеймс Молина--Описание: Чтобы оплачивать учёбу в колледже, Ричи погружается в мир азартных игр онлайн. Когда удача изменяет ему, он отправляется на Коста-Рику, чтобы помериться силами с настоящим асом игрового бизнеса. Тот видит в Ричи родственную душу и вводит его в свою игру. Но когда степень опасности возрастает, а ставки достигают невероятных высот, Ричи вдруг отчётливо понимает, что его новый босс вот-вот совершит непоправимое, и пытается поменяться с ним ролями.-- - -Качество видео: HDRip
Контейнер: AVI
Видео кодек: XviD
Аудио кодек: AC3
Видео: 720x304 (2.37:1), 23.976 fps, XviD build 73 ~1937 kbps avg, 0.37 bit/pixel-Аудио : 48 kHz, AC3 Dolby Digital, 3/2 (L,C,R,l,r) + LFE ch, ~448 kbps - Андрей Гаврилов-

Доп. информация

РИП
За исходник BDRip720р спасибо Timur (ХДТрэкер)
За перевод Гаврилова большое спасибо пользователям форума hdtracker.org:
_MyxAmoP_,chef_chef,rydanes,Gross1978,Джосс,SavineX,spacenoise,Denis2251,Pain_70, kinobbk,therox,dunhill200,Chistobaev,lexal,nimph,Brown15,Guyver,foxlight,KerkP,Role,Диммон, Anymouse,Consul,kondratzx
Огромное спасибо KpucTo161 за работу со звуком

Кванты

I frames: 1387 frames, size = 47587/66003729, quants = 2 / 2.00 / 2
P frames: 66520 frames, size = 12945/861135228, quants = 2 / 2.00 / 2
B frames: 63757 frames, size = 6315/402677958, quants = 2 / 2.00 / 2

Media Info

General
Complete name : G:\На пиратку\! не розданные\Runner Runner.2013.HDRip.Gavrilov_byGross.avi
Format : AVI
Format/Info : Audio Video Interleave
File size : 1.53 GiB
Duration : 1h 31mn
Overall bit rate : 2 395 Kbps
Writing application : VirtualDubMod 1.5.10.2 (build 2540/release)
Writing library : VirtualDubMod build 2540/release
Video
ID : 0
Format : MPEG-4 Visual
Format profile : Advanced [email protected]
Format settings, BVOP : Yes
Format settings, QPel : No
Format settings, GMC : No warppoints
Format settings, Matrix : Custom
Codec ID : XVID
Codec ID/Hint : XviD
Duration : 1h 31mn
Bit rate : 1 937 Kbps
Width : 720 pixels
Height : 304 pixels
Display aspect ratio : 2.35:1
Frame rate : 23.976 fps
Color space : YUV
Chroma subsampling : 4:2:0
Bit depth : 8 bits
Scan type : Progressive
Compression mode : Lossy
Bits/(Pixel*Frame) : 0.369
Stream size : 1.24 GiB (81%)
Writing library : XviD 73
Audio
ID : 1
Format : AC-3
Format/Info : Audio Coding 3
Mode extension : CM (complete main)
Format settings, Endianness : Big
Codec ID : 2000
Duration : 1h 31mn
Bit rate mode : Constant
Bit rate : 448 Kbps
Channel count : 6 channels
Channel positions : Front: L C R, Side: L R, LFE
Sampling rate : 48.0 KHz
Bit depth : 16 bits
Compression mode : Lossy
Stream size : 293 MiB (19%)
Alignment : Split accross interleaves
Interleave, duration : 42 ms (1.00 video frame)
Interleave, preload duration : 500 ms

Скриншоты

Яндекс.Метрика
Рейтинг@Mail.ru