[ Сегодня на трекере фрилич! Идет свободное скачивание без начисления Download ]

Крутые чуваки / Bad Asses (Крэйг Мосс / Craig Moss) [2014 г., боевик, HDRip] VO [datynet]

 

Создавать темы 03-Апр-2014 05:40

--Крутые чуваки / Bad Asses-- Производство: США, Sense and Sensibility Ventures, Silver Nitrate Films
Год выпуска: 2014 г.
Жанр: боевик
Продолжительность: 01:30:40--Мировая премьера: 8 апреля 2014--Перевод: Любительский (одноголосый закадровый) [datynet]--Режиссер: Крэйг Мосс / Craig Moss--В ролях: Дэнни Трехо, Дэнни Гловер, Эндрю Дивофф, Жаклин Обрадорс, Софи Ди, Данте Баско, Джонатан Липники, Чарли Карвер, Сара Дюмон, Игнасио Серричио--Описание: Френк Вега возвращается, что бы надрать задницы наркоторговцам, заполонивших Лос-Анджелес. И в этом непростом деле ему поможет верный друг Берни!--- --Качество видео: HDRip
Контейнер: AVI
Видео кодек: XviD
Аудио кодек: MP3
Видео: 720x400 (1.80:1), 23.976 fps, XviD MPEG-4 ~1705 kbps avg, 0.25 bit/pixel
Аудио: 44.100 kHz, MPEG Layer 3, 2 ch, ~192.00 kbps avg
Cубтитры: отсутствуют

Media Info

Общее
Полное имя : H:\Torrent2\Bad Asses[2014] HDRip_[pirat.ca].avi
Формат : AVI
Формат/Информация : Audio Video Interleave
Размер файла : 1,21 Гбайт
Продолжительность : 1 ч. 30 м.
Общий поток : 1907 Кбит/сек
Библиотека кодирования : VirtualDub build 34753/release
Правообладатель : SaM
Видео
Идентификатор : 0
Формат : MPEG-4 Visual
Профиль формата : Advanced [email protected]
Параметр BVOP формата : 4
Параметр QPel формата : Нет
Параметр GMC формата : Без точки перехода
Параметр матрицы формата : Default (H.263)
Режим смешивания : Сжатый битовый поток
Идентификатор кодека : XVID
Идентификатор кодека/Подсказка : XviD
Продолжительность : 1 ч. 30 м.
Битрейт : 1706 Кбит/сек
Ширина : 720 пикселей
Высота : 400 пикселей
Соотношение сторон : 16:9
Частота кадров : 23,976 кадра/сек
Цветовое пространство : YUV
Субдискретизация насыщенности : 4:2:0
Битовая глубина : 8 бит
Тип развёртки : Прогрессивная
Метод сжатия : С потерями
Бит/(Пиксели*Кадры) : 0.247
Размер потока : 1,08 Гбайт (89%)
Библиотека кодирования : XviD 64
Аудио
Идентификатор : 1
Формат : MPEG Audio
Версия формата : Version 1
Профиль формата : Layer 3
Идентификатор кодека : 55
Идентификатор кодека/Подсказка : MP3
Продолжительность : 1 ч. 30 м.
Вид битрейта : Постоянный
Битрейт : 192 Кбит/сек
Каналы : 2 канала
Частота : 44,1 КГц
Метод сжатия : С потерями
Размер потока : 125 Мбайт (10%)
Выравнивание : Разделение по промежуткам
Продолжительность промежутка : 42 мс. (1,00 видеокадр)
Время предзагрузки промежутка : 500 мс.

Скриншоты

Трейлер
Яндекс.Метрика
Рейтинг@Mail.ru