Русское чудо (Михаил Кокшенов) [1994 г., комедия, DVD5]

 

Создавать темы 01-Апр-2014 02:31

-Русское чудо-- Производство: Арена
Режиссер: Михаил Кокшенов
Жанр: комедия
Год выпуска: 1994 г.
Продолжительность: 01:15:57
В ролях: Семён Фарада — Эй / Кошмаровский
Михаил Кокшенов — Иван
Наталья Крачковская — тётя Катя
Рудольф Рудин — Боб Склянский
Леонид Куравлёв — Сеня
Татьяна Кравченко — Маруся
Вадим Захарченко — Плешивый
Евгений Марченко — Певец
Валерий Носик — Изя Шац
Анатолий Обухов — Толя-Описание: Пётр (Семён Фарада ), будучи похож на психотерапевта Юрия Кошмаровского, попавшего в больницу, просто обязан заменить его на гастролях по США. Ведь все билеты уже проданы, и иммиграция трепещет от нетерпения. А если дураки платят, то можно дурить их по полной программе! И новоявленный экстрасенс даёт установку...-Качество видео: DVD5
Контейнер: DVD Video
Видео кодек: MPEG2
Аудио кодек: AC3
Видео: PAL 4:3 (720x576) VBR 25,000 кадров/сек 6075 Кбит/сек 8000 Кбит/сек
Аудио: Russian (Dolby AC3, 2 ch) 48,0 КГц 448 Кбит/сек

Media Info

Формат : MPEG-PS
Размер файла : 1000 Мбайт
Продолжительность : 21 м.
Режим общего битрейта : Переменный
Общий поток : 6656 Кбит/сек
Видео
Идентификатор : 224 (0xE0)
Формат : MPEG Video
Версия формата : Version 2
Профиль формата : [email protected]
Параметр BVOP формата : Да
Параметр матрицы формата : Выборочная
Параметр GOP формата : Variable
Продолжительность : 21 м.
Вид битрейта : Переменный
Битрейт : 6075 Кбит/сек
Максимальный битрейт : 8000 Кбит/сек
Ширина : 720 пикселей
Высота : 576 пикселей
Соотношение сторон : 4:3
Частота кадров : 25,000 кадров/сек
Стандарт вещания : PAL
Цветовое пространство : YUV
Субдискретизация насыщенности : 4:2:0
Битовая глубина : 8 бит
Тип развёртки : Чересстрочная
Порядок развёртки : Верхнее поле первое
Метод сжатия : С потерями
Бит/(Пиксели*Кадры) : 0.586
Временной код первого кадра : 03:26:42:05
Оригинал временного кода : Group of pictures header
Размер потока : 913 Мбайт (91%)
Аудио
Идентификатор : 189 (0xBD)-128 (0x80)
Формат : AC-3
Формат/Информация : Audio Coding 3
Расширение режима : CM (complete main)
Параметр Endianness формата : Big
Режим смешивания : DVD-Video
Продолжительность : 21 м.
Вид битрейта : Постоянный
Битрейт : 448 Кбит/сек
Каналы : 6 каналов
Расположение каналов : Front: L C R, Side: L R, LFE
Частота : 48,0 КГц
Битовая глубина : 16 бит
Метод сжатия : С потерями
Задержка видео : -80 мс.
Размер потока : 67,3 Мбайт (7%)

Меню DVD

Скриншоты

Яндекс.Метрика
Рейтинг@Mail.ru