[ Сегодня на трекере фрилич! Идет свободное скачивание без начисления Download ]

Преступный синдикат / Гангстеры / Mobsters (Theatrical's Cut) (Майкл Карбельникофф /Michael Karbelnikoff) [1991 г., Драма, криминал, гангстерский, HD DVDRip-AVC] AVO (Александр Марченко)

 

Создавать темы 01-Апр-2014 02:18

Преступный синдикат / Гангстеры / Mobsters (Theatrical's Cut)«So you think life was quieter in the old days...? THINK AGAIN!»- Год выпуска: 1991
Производство: США, Universal Pictures
Жанр: Драма, криминал, гангстерский
Продолжительность: 01:43:34
Перевод: Авторский (одноголосый, закадровый) Александр Марченко
Субтитры: отсутствуют
Режиссер: Майкл Карбельникофф / Michael Karbelnikoff
В ролях: Кристиан Слейтер / Christian Slater, Патрик Демпси / Patrick Dempsey, Костас Мэндилор / Costas Mandylor, Ричард Грико / Richard Grieco, Ф. Мюррей Абрахам / F. Murray Abraham, Майкл Гэмбон / Michael Gambon, Лара Флинн Бойл / Lara Flynn Boyle, Энтони Куинн / Anthony Quinn, Кристофер Пенн / Christopher Penn, Николас Сэдлер / Nicholas Sadler
Описание: Художественное повествование в киноленте охватывает временной период первой трети XX века и рассматривает судьбу банды нью-йоркских гангстеров под предводительством Лаки Лучиано на этапе формирования, становления и расцвета. Их было четверо - Лаки Лучиано, Мейер Лански, Багси Сигел и Фрэнк Костелло, они стартовали с самых низших позиций в своей социальной среде и происходили из разных этнических групп, но впоследствии установили друг с другом весьма тесные связи, благодаря которым поднялись на самый высокий уровень в иерархии криминального сообщества. В 1920-е годы на американской преступной сцене правили бал две могущественных итальянских группировки Массерии и Маранцано враждовавших между собой. В ходе этой уличной войны, вошедшей в историю под именем кастелламарской. Лучиано и его друзья, чтобы выжить, должны были выбрать одну из сторон. Но по совету нью-йоркского бизнесмена Арнольда Ротштейна они занимают отстранённую позицию и затевают игру, цель которой — смерть обоих глав преступных организаций… Они были особенными и знали это. Они не побоялись тех, кто был сильнее их и не стали ни под кого «прогибаться».Они заставили считаться с собой целый континент, при помощи силы и ума — насадили свои законы. Они стали легендой криминальной истории Америки!
Качество видео: HD DVDRip
Контейнер: MKV
Видео кодек: MPEG-4 AVC / H.264
Видео: 1072x580 (1,85:1), 23,976 fps, [email protected], ~3388 Kbps
Аудио : 48 kHz, AC3 Dolby Digital, 2/0 (L,R) ch, ~256 kbps - Марченко

Доп. информация

Рип с HDDVD Remux (dmsushko). За дорожку с переводом Марченко спасибо El Capitain (е180).

Media Info

Полное имя : H:\Мои документы\Кинофильмы\Кино\Mobsters.1991.HDDVDRip.Marchenko.mkv
Формат : Matroska
Версия формата : Version 4 / Version 2
Размер файла : 2,64 Гбайт
Продолжительность : 1 ч. 43 м.
Общий поток : 3646 Кбит/сек
Название фильма : Mobsters.1991.HDDVDRip.Marchenko -=anton966=-
Дата кодирования : UTC 2014-03-31 21:01:42
Программа кодирования : mkvmerge v6.8.0 ('Theme for Great Cities') 32bit built on Mar 2 2014 21:27:07
Библиотека кодирования : libebml v1.3.0 + libmatroska v1.4.1
Видео
Идентификатор : 1
Формат : AVC
Формат/Информация : Advanced Video Codec
Профиль формата : [email protected]
Параметр CABAC формата : Да
Параметр ReFrames формата : 8 кадров
Идентификатор кодека : V_MPEG4/ISO/AVC
Продолжительность : 1 ч. 43 м.
Битрейт : 3317 Кбит/сек
Ширина : 1072 пикселя
Высота : 580 пикселей
Соотношение сторон : 1,85:1
Режим частоты кадров : Постоянный
Частота кадров : 23,976 кадра/сек
Цветовое пространство : YUV
Субдискретизация насыщенности : 4:2:0
Битовая глубина : 8 бит
Тип развёртки : Прогрессивная
Бит/(Пиксели*Кадры) : 0.223
Размер потока : 2,40 Гбайт (91%)
Заголовок : Mobsters.1991.HDDVDRip (1072x580)
Библиотека кодирования : x264 core 130 r2273 b3065e6
Настройки программы : cabac=1 / ref=8 / deblock=1:-2:-2 / analyse=0x3:0x133 / me=umh / subme=11 / psy=1 / psy_rd=1.00:0.15 / mixed_ref=1 / me_range=32 / chroma_me=1 / trellis=2 / 8x8dct=1 / cqm=0 / deadzone=21,11 / fast_pskip=0 / chroma_qp_offset=-3 / threads=3 / lookahead_threads=1 / sliced_threads=0 / nr=0 / decimate=0 / interlaced=0 / bluray_compat=0 / constrained_intra=0 / bframes=12 / b_pyramid=2 / b_adapt=2 / b_bias=0 / direct=1 / weightb=1 / open_gop=0 / weightp=2 / keyint=240 / keyint_min=23 / scenecut=40 / intra_refresh=0 / rc_lookahead=50 / rc=crf / mbtree=1 / crf=18.6 / qcomp=0.60 / qpmin=0 / qpmax=69 / qpstep=4 / ip_ratio=1.40 / aq=2:1.00
Язык : English
Default : Да
Forced : Нет
Аудио
Идентификатор : 2
Формат : AC-3
Формат/Информация : Audio Coding 3
Расширение режима : CM (complete main)
Параметр Endianness формата : Big
Идентификатор кодека : A_AC3
Продолжительность : 1 ч. 43 м.
Вид битрейта : Постоянный
Битрейт : 256 Кбит/сек
Каналы : 2 канала
Расположение каналов : Front: L R
Частота : 48,0 КГц
Битовая глубина : 16 бит
Метод сжатия : С потерями
Размер потока : 190 Мбайт (7%)
Заголовок : Marchenko
Язык : Russian
Default : Да
Forced : Нет
Меню
00:00:00.000 : en:Main Titles
00:02:24.010 : en:Two Bosses
00:07:33.453 : en:How We Started
00:12:02.004 : en:Doing Business
00:17:31.667 : en:Ambushed
00:21:27.736 : en:A Generous Offer
00:27:03.238 : en:We've Been Hit
00:33:57.235 : en:The Trap
00:39:45.049 : en:Go West Young Man
00:47:44.862 : en:The Business Wedding
00:54:44.281 : en:Write Your Own Ticket
00:59:18.421 : en:No Choice
01:05:46.475 : en:This Is War
01:11:36.325 : en:Trust Me
01:16:19.575 : en:Pay Respects
01:22:16.932 : en:Hit and Miss
01:28:38.396 : en:Payback
01:38:37.695 : en:End Titles

log x.264

avs [info]: 1072x580p 1:1 @ 24000/1001 fps (cfr)
x264 [info]: using SAR=1/1
x264 [info]: using cpu capabilities: MMX2 SSE2Slow SlowCTZ
x264 [info]: profile High, level 4.1
x264 [info]: frame I:913 Avg QP:16.48 size: 83093
x264 [info]: frame P:28748 Avg QP:20.23 size: 31186
x264 [info]: frame B:119320 Avg QP:21.75 size: 13903
x264 [info]: consecutive B-frames: 1.3% 1.2% 3.4% 16.9% 11.4% 53.5% 3.9% 4.5% 1.0% 1.6% 0.4% 0.7% 0.3%
x264 [info]: mb I I16..4: 6.1% 80.0% 14.0%
x264 [info]: mb P I16..4: 0.7% 12.7% 1.6% P16..4: 33.1% 36.7% 9.9% 1.3% 0.1% skip: 4.0%
x264 [info]: mb B I16..4: 0.0% 1.9% 0.2% B16..8: 42.4% 20.9% 2.7% direct: 6.5% skip:25.3% L0:45.7% L1:45.3% BI: 9.0%
x264 [info]: 8x8 transform intra:84.8% inter:63.2%
x264 [info]: coded y,uvDC,uvAC intra: 92.0% 81.6% 54.3% inter: 36.2% 30.1% 6.1%
x264 [info]: i16 v,h,dc,p: 31% 12% 8% 49%
x264 [info]: i8 v,h,dc,ddl,ddr,vr,hd,vl,hu: 13% 6% 7% 10% 14% 14% 12% 12% 12%
x264 [info]: i4 v,h,dc,ddl,ddr,vr,hd,vl,hu: 40% 5% 5% 6% 10% 11% 8% 8% 7%
x264 [info]: i8c dc,h,v,p: 41% 22% 20% 18%
x264 [info]: Weighted P-Frames: Y:3.5% UV:1.5%
x264 [info]: ref P L0: 41.6% 8.8% 20.4% 8.6% 7.2% 5.3% 4.8% 3.0% 0.3% 0.0%
x264 [info]: ref B L0: 70.6% 13.5% 7.3% 3.7% 2.8% 1.5% 0.6%
x264 [info]: ref B L1: 91.6% 8.4%
x264 [info]: kb/s:3387.76

Скриншоты

Яндекс.Метрика
Рейтинг@Mail.ru