Разжалованный (Владимир Тумаев) [2009 г., драма, военный, DVDRip]

 

Создавать темы 12-Окт-2013 19:20

Разжалованный Год выпуска: 2009
Страна: Россия
Жанр: драма, военный
Продолжительность: 01:32:15
Перевод: Не требуется
Режиссер: Владимир Тумаев
В ролях: Александр Михайлов, Никита Тезин, Филипп Бажин, Ольга Лапшина, Марина Куделинская, Андрей Межулис, Денис Карасев, Михаил Солодко, Иван Мамонов, Николай Козак...
Описание: Лейтенанта, отказавшегося штурмовать высотку, решено разжаловать и отправить в тыл, где его дело рассмотрит военный трибунал. В штаб дивизии бывшего командира конвоируют лейтенант комендантской роты и рядовой боец, в прошлом командир бригады, приговоренный к расстрелу. Вместо штаба, передислоцированного ближе к линии фронта, они выходят к госпиталю с оставленными тяжелоранеными бойцами, размещенному в полуразрушенной церкви. Очень скоро возле того же госпиталя оказываются прорвавшиеся из окружения немцы.

Доп. информация:

MediaInfo

General
Complete name                    : E:\Фильмы\Для Раздач\Разжалованный2009.XviD.DVDRip.avi
Format                           : AVI
Format/Info                      : Audio Video Interleave
File size                        : 1.37 GiB
Duration                         : 1h 32mn
Overall bit rate                 : 2 119 Kbps
Writing application              : VirtualDubMod 1.5.4.1 (build 2178/release) VirtualDubMod build 2178/release
Video
ID                               : 0
Format                           : MPEG-4 Visual
Format profile                   : Streaming [email protected]
Format settings, BVOP            : Yes
Format settings, QPel            : No
Format settings, GMC             : No warppoints
Format settings, Matrix          : Custom
Codec ID                         : XVID
Codec ID/Hint                    : XviD
Duration                         : 1h 32mn
Bit rate                         : 1 920 Kbps
Width                            : 720 pixels
Height                           : 416 pixels
Display aspect ratio             : 16/9
Frame rate                       : 25.000 fps
Resolution                       : 24 bits
Colorimetry                      : 4:2:0
Scan type                        : Progressive
Bits/(Pixel*Frame)               : 0.256
Stream size                      : 1.24 GiB (91%)
Writing library                  : XviD 1.2.1 (UTC 2008-12-04)
Audio
ID                               : 1
Format                           : AC-3
Format/Info                      : Audio Coding 3
Codec ID                         : 2000
Duration                         : 1h 32mn
Bit rate mode                    : Constant
Bit rate                         : 192 Kbps
Channel(s)                       : 2 channels
Channel positions                : L R
Sampling rate                    : 48.0 KHz
Stream size                      : 127 MiB (9%)
Alignment                        : Split accross interleaves
Interleave, duration             : 96 ms (2.40 video frames)
Interleave, preload duration     : 96 ms
Language                         : Не определен
Качество: DVDRip
Формат: AVI
Видео кодек: XviD
Аудио кодек: AC3
Видео: 720x416, 25fps, XviD, 1920 kbps
Аудио: 48000Hz,AC3 Dolby,192kbps

Скриншоты

Яндекс.Метрика
Рейтинг@Mail.ru