Остров (Павел Лунгин) [2006 г., драма, DVDRip]

 

Создавать темы 31-Мар-2014 02:39

-Остров-- Производство: Россия, студия Павла Лунгина
Режиссер: Павел Лунгин
Жанр: драма
Год выпуска: 2006 г.
Продолжительность: 01:49:46
В ролях: Петр Мамонов, Виктор Сухоруков, Дмитрий Дюжев, Юрий Кузнецов, Виктория Исакова, Нина Усатова, Яна Есипович, Ольга Демидова, Тимофей Трибунцев, Алексей Зеленский, Гриша Степунов, Сергей Бурунов-Описание: Фильм открывает эпизод времен Второй мировой войны. Немецкий сторожевой корабль захватывает в море небольшую баржу, на которой перевозят уголь двое русских. Одного, кочегара Анатолия, фашисты заставляют выдать, а затем и убить своего старшего товарища Тихона, вложив обезумевшему от страха и побоев юноше в руку пистолет. Анатолия оставляют в живых, чтобы через несколько минут взорвать вместе с баржей.
Действие переносится в 1976 год. На севере России, на пустынном острове в море, в маленькой православной обители нашел приют уцелевший после взрыва Анатолий. Работает истопником монастырской котельной, целыми днями возит тачку с углем, спит на куче угля и даже хоронить себя завещает в угольном ящике. Собратьев-монахов смущают его странности – то он зачем-то бросает в печь чужие сапоги, то громко кричит петухом, то кидает обгорелой головней в игумена. Но в каждой такой дикой выходке есть смысл — это, похоже, способ иносказания об очень важных вещах. На остров издалека приезжают люди, веря, что Анатолий способен дать мудрый совет, излечить болезнь, изгнать бесов. Он никому не отказывает в помощи, но страдает, тяготясь сознанием тяжести греха, совершенного тогда, на барже. Вымаливает прощение у убитого товарища. Но как узнать, что прощен, если ответа нет?-Качество видео: DVDRip
Контейнер: AVI
Видео кодек: XviD
Аудио кодек: AC3
Видео: 720x304; 1446 kbps; 25 fps; 0.264 bit/pixel
Аудио: 448 kbps; 6 ch; 48 kHz
Cубтитры: отсутствуют

Награды

2006 — лучший фильм на кинофестивале «Московская премьера».
2007 — Шесть премий «Золотой орёл» — «Лучший фильм года», «Лучшая мужская роль второго плана» (Виктор Сухоруков), «Лучшая мужская роль» (Петр Мамонов), «Лучший режиссёр» (Павел Лунгин), «Лучший сценарий» (Дмитрий Соболев), «Лучшая операторская работа» (Андрей Жегалов, посмертно).
2007 — Шесть премий «Ника» — «Лучший фильм года», «Лучшая мужская роль второго плана» (Виктор Сухоруков), «Лучшая мужская роль» (Петр Мамонов), «Лучшая режиссёрская работа» (Павел Лунгин), «Лучшая операторская работа» (Андрей Жегалов, посмертно), «Лучшая работа звукорежиссёра» (Стефан Альбине, Владимир Литровник, Степан Богданов).

Media Info

Общее
Полное имя : E:\Torrent\Ostrov.torrent.avi
Формат : AVI
Формат/Информация : Audio Video Interleave
Размер файла : 1,46 Гбайт
Продолжительность : 1 ч. 49 м.
Общий поток : 1904 Кбит/сек
Программа кодирования : VirtualDubMod 1.5.10.2 (build 2540/release)
Библиотека кодирования : VirtualDubMod build 2540/release
Видео
Идентификатор : 0
Формат : MPEG-4 Visual
Профиль формата : Advanced [email protected]
Параметр BVOP формата : 1
Параметр QPel формата : Нет
Параметр GMC формата : Без точки перехода
Параметр матрицы формата : Default (MPEG)
Идентификатор кодека : XVID
Идентификатор кодека/Подсказка : XviD
Продолжительность : 1 ч. 49 м.
Битрейт : 1446 Кбит/сек
Ширина : 720 пикселей
Высота : 304 пикселя
Соотношение сторон : 2,35:1
Частота кадров : 25,000 кадров/сек
Цветовое пространство : YUV
Субдискретизация насыщенности : 4:2:0
Битовая глубина : 8 бит
Тип развёртки : Прогрессивная
Метод сжатия : С потерями
Бит/(Пиксели*Кадры) : 0.264
Размер потока : 1,11 Гбайт (76%)
Библиотека кодирования : XviD 1.2.0.dev47 (UTC 2006-11-01)
Аудио
Идентификатор : 1
Формат : AC-3
Формат/Информация : Audio Coding 3
Расширение режима : CM (complete main)
Параметр Endianness формата : Big
Идентификатор кодека : 2000
Продолжительность : 1 ч. 49 м.
Вид битрейта : Постоянный
Битрейт : 448 Кбит/сек
Каналы : 6 каналов
Расположение каналов : Front: L C R, Side: L R, LFE
Частота : 48,0 КГц
Битовая глубина : 16 бит
Метод сжатия : С потерями
Задержка видео : 400 мс.
Размер потока : 352 Мбайт (24%)
Выравнивание : Разделение по промежуткам
Продолжительность промежутка : 40 мс. (1,00 видеокадр)
Время предзагрузки промежутка : 500 мс.

Скриншоты

Яндекс.Метрика
Рейтинг@Mail.ru