47 ронинов 3D / 47 Ronin 3D (Карл Ринш / Carl Rinsch) [2013 г., Фэнтези, боевик, приключения, BDRip-AVC 1080p] [Вертикальная анаморфная стереопара] Dub [Чистый звук] Sub Eng + Original (Eng)

 

Создавать темы 30-Мар-2014 10:03

47 ронинов 3D / 47 Ronin 3D Год выпуска: 2013
Жанр: Фэнтези, боевик, приключения
Перевод: Дублированный [Чистый звук]
Субтитры: Английские
Продолжительность: 01:58:43
Режиссер: Карл Ринш / Carl Rinsch
В ролях: Киану Ривз, Хироюки Санада, Ко Шибасаки, Таданобу Асано, Мин Танака, Джин Аканиши, Масаёси Ханеда, Хироси Согабэ, Такато Йонемото, Хироси Ямада...
Роли дублировали: Лиза Мартиросова, Сергей Смирнов, Александр Головчанский.
Описание: Таинственный странник, преданный всеми, проданный в рабство, избранный судьбой вершить месть, станет одним из 47 воинов, бросивших вызов смерти. Явившись из другого мира, он восстанет против темных сил, чтобы защитить свою запретную любовь.
Доп. информация:

бюджет: $175 000 000
сборы в США: $38 362 475
сборы в мире: + $107 789 579 = $146 152 054 сборы
сборы в России: $26 316 217
зрители: 2.96 млн, 1.46 млн, 478.6 тыс., ...
премьера (мир): 6 декабря 2013
премьера (РФ): 1 января 2014, «UPI» 3D
релиз на Blu-Ray: 24 апреля 2014, «Двадцатый Век Фокс СНГ»
релиз на DVD: 24 апреля 2014, «Двадцатый Век Фокс СНГ»

MediaInfo

General
Complete name                    : E:\Blu-Ray 3D\47 Ronin 2013 3D\47Ronin(2013)3D-halfOU.mkv
Format                           : Matroska
File size                        : 8.29 GiB
Duration                         : 1h 58mn
Overall bit rate                 : 9 995 Kbps
Movie name                       : 47 ронинов / 47 Ronin (2013) 3D
Encoded date                     : UTC 2014-03-23 05:06:20
Writing application              : mkvmerge v5.8.0 ('No Sleep / Pillow') built on Sep  2 2012 15:37:04
Writing library                  : libebml v1.2.3 + libmatroska v1.3.0
Video
ID                               : 1
Format                           : AVC
Format/Info                      : Advanced Video Codec
Format profile                   : [email protected]
Format settings, CABAC           : Yes
Format settings, ReFrames        : 4 frames
Muxing mode                      : Container [email protected]
Codec ID                         : V_MPEG4/ISO/AVC
Duration                         : 1h 58mn
Bit rate                         : 8 900 Kbps
Width                            : 1 920 pixels
Height                           : 1 080 pixels
Display aspect ratio             : 16/9
Frame rate                       : 23.976 fps
Resolution                       : 24 bits
Colorimetry                      : 4:2:0
Scan type                        : Progressive
Bits/(Pixel*Frame)               : 0.179
Stream size                      : 7.37 GiB (89%)
Title                            : BDRip by Ash61
Writing library                  : x264 core 129 r2245 bc13772
Encoding settings                : cabac=1 / ref=4 / deblock=1:-3:-3 / analyse=0x3:0x113 / me=umh / subme=10 / psy=1 / psy_rd=1.00:0.15 / mixed_ref=1 / me_range=32 / chroma_me=1 / trellis=2 / 8x8dct=1 / cqm=0 / deadzone=21,11 / fast_pskip=1 / chroma_qp_offset=-3 / threads=12 / lookahead_threads=2 / sliced_threads=0 / nr=0 / decimate=1 / interlaced=0 / bluray_compat=0 / constrained_intra=0 / bframes=8 / b_pyramid=2 / b_adapt=2 / b_bias=0 / direct=3 / weightb=1 / open_gop=0 / weightp=2 / keyint=250 / keyint_min=23 / scenecut=40 / intra_refresh=0 / rc_lookahead=60 / rc=crf / mbtree=1 / crf=17.0 / qcomp=0.70 / qpmin=0 / qpmax=69 / qpstep=4 / vbv_maxrate=40000 / vbv_bufsize=30000 / crf_max=0.0 / nal_hrd=none / frame-packing=4 / ip_ratio=1.40 / aq=1:0.70
Audio #1
ID                               : 2
Format                           : AC-3
Format/Info                      : Audio Coding 3
Codec ID                         : A_AC3
Duration                         : 1h 58mn
Bit rate mode                    : Constant
Bit rate                         : 256 Kbps
Channel(s)                       : 2 channels
Channel positions                : L R
Sampling rate                    : 48.0 KHz
Stream size                      : 217 MiB (3%)
Title                            : Дубляж - "чистый звук"
Language                         : Russian
Audio #2
ID                               : 3
Format                           : AC-3
Format/Info                      : Audio Coding 3
Codec ID                         : A_AC3
Duration                         : 1h 58mn
Bit rate mode                    : Constant
Bit rate                         : 640 Kbps
Channel(s)                       : 6 channels
Channel positions                : Front: L C R, Surround: L R, LFE
Sampling rate                    : 48.0 KHz
Stream size                      : 543 MiB (6%)
Title                            : Original - BD 3D
Menu
00:00:00.000                     : :1
00:04:27.559                     : :2
00:11:12.088                     : :3
00:16:27.820                     : :4
00:20:11.836                     : :5
00:26:52.319                     : :6
00:31:02.944                     : :7
00:36:10.627                     : :8
00:43:36.614                     : :9
00:50:14.511                     : :10
00:54:59.421                     : :11
00:59:54.049                     : :12
01:09:57.735                     : :13
01:13:59.018                     : :14
01:19:12.247                     : :15
01:24:17.386                     : :16
01:33:00.825                     : :17
01:38:55.555                     : :18
01:44:41.609                     : :19
01:48:38.303                     : :20
Формат 3D: Half OverUnder / Вертикальная анаморфная стереопара
Порядок ракурсов: Левый ракурс первый
Качество: BDRip-AVC
Формат: MKV
Видео кодек: H.26x
Аудио кодек: AC3
Видео: MPEG-4 AVC, 8900 Кбит/с, 1920х1080
Аудио: Русский, AC3, 2 ch, 256 Kбит/с
Аудио #2: Английский, AC3, 6 ch, 640 Kбит/с

Скриншоты

Яндекс.Метрика
Рейтинг@Mail.ru