Приказ : Убить Сталина. Фильм Леонида Млечина (Екатерина Гальперина)(2014.03.27,Документальный) SATRip

 

Создавать темы 27-Мар-2014 20:21

Приказ : Убить Сталина. Фильм Леонида Млечина (2014.03.27) SATRip Режиссер / Телекомпания: ТВЦ
Русское название: Фильм Леонида Млечина
Год выпуска: 2014
Жанр: Документальный
Описание:
Несмотря на огромное количество охраны, Сталин всерьёз опасался покушений. Его опасения резко выросли после того, как в Японию сбежал комиссар госбезопасности Генрих Люшков, лично отвечавший за его безопасность. Именно Люшкову японская разведка поручила организовать покушение на вождя. В документах японской военной разведки эта операция получила кодовое название "Охота на медведя"...
Режиссёр: Екатерина Гальперина
Ведущий: Леонид Млечин
Текст читал: Любовь Германова и Александр Клюквин
Продолжительность: ~ 00:39:02
Видеокодек: XVID
Битрейт видео: ~1500 kb/s
Размер кадра: 640 x 480
Качество видео: SATRip
Аудиокодек: MP3, 2ch.
Битрейт аудио: 128 kb/s

MediaInfo

Формат : AVI
Формат/Информация : Audio Video Interleave
Размер файла : 457 Мбайт
Продолжительность : 39 м.
Общий поток : 1635 Кбит/сек
Программа кодирования : VirtualDubMod 1.5.10.3 | www.virtualdub-fr.org || (build 2550/release)
Библиотека кодирования : VirtualDubMod build 2550/release
Видео
Идентификатор : 0
Формат : MPEG-4 Visual
Профиль формата : Advanced [email protected]
Параметр BVOP формата : 2
Параметр QPel формата : Нет
Параметр GMC формата : Без точки перехода
Параметр матрицы формата : Default (MPEG)
Идентификатор кодека : XVID
Идентификатор кодека/Подсказка : XviD
Продолжительность : 39 м.
Битрейт : 1498 Кбит/сек
Ширина : 640 пикселей
Высота : 480 пикселей
Соотношение сторон : 4:3
Частота кадров : 25,000 кадров/сек
Цветовое пространство : YUV
Субдискретизация насыщенности : 4:2:0
Битовая глубина : 8 бит
Тип развёртки : Прогрессивная
Метод сжатия : С потерями
Бит/(Пиксели*Кадры) : 0.195
Размер потока : 418 Мбайт (92%)
Библиотека кодирования : XviD 1.2.1 (UTC 2008-12-04)
Аудио
Идентификатор : 1
Формат : MPEG Audio
Версия формата : Version 1
Профиль формата : Layer 3
Идентификатор кодека : 55
Идентификатор кодека/Подсказка : MP3
Продолжительность : 39 м.
Вид битрейта : Постоянный
Битрейт : 128 Кбит/сек
Каналы : 2 канала
Частота : 48,0 КГц
Метод сжатия : С потерями
Размер потока : 35,8 Мбайт (8%)
Выравнивание : Соединение по промежуткам
Продолжительность промежутка : 40 мс. (1,00 видеокадр)
Время предзагрузки промежутка : 504 мс.
Библиотека кодирования : LAME3.99r
Настройки программы : -m s -V 4 -q 2 -lowpass 17 -b 128
Скриншоты:
Яндекс.Метрика
Рейтинг@Mail.ru