Славные парни / Goodfellas (Мартин Скорсезе / Martin Scorsese) [1990 г., Криминальная драма, BDRip-AVC, 576p] AVO (Михалёв, Гаврилов, Горчаков, Живов, Прямостанов)

 

Создавать темы 26-Мар-2014 17:03

Славные парни / Goodfellas- Год выпуска: 1990
Производство: США, Warner Bros. Pictures Co.
Жанр: Криминальная драма
Продолжительность: 02:25:27
Перевод: Авторский (одноголосый, закадровый) Михалёв, Гаврилов, Горчаков, Живов, Прямостанов
Субтитры: русские
Режиссер: Мартин Скорсезе / Martin Scorsese
В ролях: Роберт Де Ниро / Robert De Niro, Рэй Лиотта / Ray Liotta, Джо Пеши / Joe Pesci, Лоррэйн Бракко / Lorraine Bracco, Пол Сорвино / Paul Sorvino, Сэмюэл Л. Джексон / Samuel L. Jackson, Фрэнк Сиверо / Frank Sivero, Тони Дарроу / Tony Darrow, Майк Старр / Mike Starr, Фрэнк Винсент / Frank Vincent, Чак Лоу / Chuck Low, Фрэнк ДиЛео / Frank DiLeo, Катрин Скорсезе / Catherine Scorsese, Чарльз Скорсезе / Charles Scorsese, Сюзанн Шеперд / Suzanne Shepherd ...
Описание: Молодой парнишка с детства обожает гангстеров, и его единственная мечта стать таким же, как они, - ездить в быстрых машинах, носить дорогие костюмы и пользоваться огромным "уважением". Мечта его сбылась, он стал гангстером, но за все в жизни приходится платить. Он нарушает правила, занявшись наркобизнесом без одобрения и без участия сильных мира сего, и, чтобы избежать возмездия, дает показания на своих бывших коллег, после чего ему предстоит исчезнуть навсегда под чужим именем. Де Ниро получил мировое признание за роль ветерана-преступника Джимми Конвея. Джо Пеши получил "Оскара" за лучшую роль второго плана. Серебряный приз на МКФ в Венеции в 1990 году. (Иванов М.)
Качество видео: BDRip-AVC
Контейнер: MKV
Видео кодек: MPEG-4 AVC / H.264
Видео: 1016x576 at 23.976 fps, [email protected], ~3500 kbps avg
Аудио#1: 48 kHz, AC3 Dolby Digital, 3/2 (L,C,R,l,r) + LFE ch, ~448 kbps - Михалёв
Аудио#2: 48 kHz, AC3 Dolby Digital, 3/2 (L,C,R,l,r) + LFE ch, ~448 kbps - Гаврилов
Аудио#3: 48 kHz, AC3 Dolby Digital, 3/2 (L,C,R,l,r) + LFE ch, ~448 kbps - Горчаков
Аудио#4: 48 kHz, AC3 Dolby Digital, 3/2 (L,C,R,l,r) + LFE ch, ~448 kbps - Живов
Аудио#5: 48 kHz, AC3 Dolby Digital, 2/0 (L,R) ch, ~192 kbps avg - Прямостанов
Формат субтитров: softsub (SRT)

Интересные факты:

  • Фильм снят по мотивам книги Николаса Пиледжи «Умник» (Wiseguy: Life in a Mafia Family, 1985).
  • Настоящий Хилл также говорил, что авторы фильма попали в образ реального Томми ДеВито практически на 99%, за одним лишь «но» — Томми был огромным, как шкаф, что очень контрастирует с маленьким ростом Джо Пеши.
  • В фильме в маленьких эпизодах появились отец и мать Мартина Скорсезе.
  • Лиотта провел много времени в беседах со своим «героем» — Генри Хиллом. Позже в интервью Хилл рассказал, что многие гангстеры говорили ему, будто в фильме не его история, а их.
  • Ходили устойчивые слухи, будто настоящий Джимми Конуэй (подлинное имя — Джимми Берк) был настолько в восторге от того, что его сыграет Де Ниро, что позвонил ему из тюрьмы и дал несколько ценных советов. Однако Николас Пиледжи всячески отрицает эти слухи, утверждая, что Конуэй и Де Ниро никогда не общались. Тем не менее, он не отказывается, что в проекте участвовали люди, знавшие настоящих главных героев довольно близко.
  • Настоящий Генри Хилл (Рэй Лиотта) в свое время переехал в Редмонд, где открыл итальянский ресторан. Однако после выхода фильма он вернулся. Одна из его дочерей появляется в сцене свадьбы.
  • После того, как мать Джо Пеши посмотрела фильм, она позвонила сыну, сказала, что кино хорошее, но плохо, что он так часто ругается.
  • Слово «fuck» в фильме использовано 246 раз; в большинстве случаев им пользуется герой Джо Пеши. С учетом различных вариаций получается вообще 275 раз, то есть, по одному ругательству каждые 28 секунд.
  • Финальный выстрел Томми прямо в камеру считается своеобразной цитатой из «Большого ограбления поезда» (1903), где уже после всего действия бандит также стреляет из револьвера прямо в зрительный зал.
  • По просьбе Скорсезе Джо Пеши сам придумал и снял сцену, где его герой Томми ДеВито выходит из себя под любимую фразу «Думаешь, я забавный?»
  • Внимание! Дальнейший список фактов о фильме содержит спойлеры. Будьте осторожны.
  • Джимми Берк скончался в тюрьме в 1996 году. В фильме речь идет о том, что его досрочно могли отпустить только в 2004-м.
  • Томми ДеВито убивает Билли Бэттса. Это уже второй раз в фильмах Скорсезе, когда герой Джо Пеши причиняет вред здоровью героя Фрэнка Винсента; впервые это случилось в «Бешеном быке» (1980) — там Пеши избивает Винсента до полусмерти. Напротив, Винсент получил возможность отомстить в «Казино» (1995), где его герой убивает героя Пеши на кукурузном поле.

Награды

Оскар, 1991 год
Победитель (1):
Лучшая мужская роль второго плана (Джо Пеши)
Номинации (5):
Лучший фильм
Лучшая женская роль второго плана (Лоррейн Бракко)
Лучший режиссер (Мартин Скорсезе)
Лучший адаптированный сценарий
Лучший монтаж
Золотой глобус, 1991 год
Номинации (5):
Лучший фильм (драма)
Лучшая мужская роль второго плана (Джо Пеши)
Лучшая женская роль второго плана (Лоррейн Бракко)
Лучший режиссер (Мартин Скорсезе)
Лучший сценарий
Британская академия, 1991 год
Победитель (5):
Лучший фильм
Лучший режиссер (Мартин Скорсезе)
Лучший адаптированный сценарий
Лучшие костюмы
Лучший монтаж
Номинации (2):
Лучшая мужская роль (Роберт Де Ниро)
Лучшая работа оператора
Сезар, 1991 год
Номинации (1):
Лучший фильм на иностранном языке
Венецианский кинофестиваль, 1990 год
Победитель (1):
Серебряный лев за лучшую режиссерскую работу (Мартин Скорсезе)

Media Info

Формат : Matroska
Версия формата : Version 4 / Version 2
Размер файла : 5,57 Гбайт
Продолжительность : 2 ч. 25 м.
Общий поток : 5485 Кбит/сек
Название фильма : Goodfellas.1990.x264.BDRip.5xAVO
Дата кодирования : UTC 2014-03-25 22:48:27
Программа кодирования : mkvmerge v6.8.0 ('Theme for Great Cities') 32bit built on Mar 2 2014 21:27:07
Библиотека кодирования : libebml v1.3.0 + libmatroska v1.4.1
Видео
Идентификатор : 1
Формат : AVC
Формат/Информация : Advanced Video Codec
Профиль формата : [email protected]
Параметр CABAC формата : Да
Параметр ReFrames формата : 8 кадров
Идентификатор кодека : V_MPEG4/ISO/AVC
Продолжительность : 2 ч. 25 м.
Битрейт : 3500 Кбит/сек
Ширина : 1016 пикселей
Высота : 576 пикселей
Соотношение сторон : 16:9
Режим частоты кадров : Постоянный
Частота кадров : 23,976 кадра/сек
Цветовое пространство : YUV
Субдискретизация насыщенности : 4:2:0
Битовая глубина : 8 бит
Тип развёртки : Прогрессивная
Бит/(Пиксели*Кадры) : 0.249
Размер потока : 3,45 Гбайт (62%)
Заголовок : Goodfellas.1990.x264.BDRip (1016x576)
Библиотека кодирования : x264 core 125 r2208 d9d2288
Настройки программы : cabac=1 / ref=8 / deblock=1:-2:-2 / analyse=0x3:0x133 / me=umh / subme=11 / psy=1 / psy_rd=1.00:0.15 / mixed_ref=1 / me_range=48 / chroma_me=1 / trellis=2 / 8x8dct=1 / cqm=0 / deadzone=21,11 / fast_pskip=0 / chroma_qp_offset=-3 / threads=3 / lookahead_threads=1 / sliced_threads=0 / nr=0 / decimate=0 / interlaced=0 / bluray_compat=0 / constrained_intra=0 / bframes=8 / b_pyramid=2 / b_adapt=2 / b_bias=0 / direct=3 / weightb=1 / open_gop=0 / weightp=2 / keyint=240 / keyint_min=23 / scenecut=40 / intra_refresh=0 / rc=2pass / mbtree=0 / bitrate=3500 / ratetol=1.0 / qcomp=0.60 / qpmin=0 / qpmax=69 / qpstep=4 / cplxblur=20.0 / qblur=0.5 / ip_ratio=1.40 / pb_ratio=1.30 / aq=1:1.00
Язык : English
Default : Да
Forced : Нет
Аудио #1
Идентификатор : 2
Формат : AC-3
Формат/Информация : Audio Coding 3
Расширение режима : CM (complete main)
Параметр Endianness формата : Big
Идентификатор кодека : A_AC3
Продолжительность : 2 ч. 25 м.
Вид битрейта : Постоянный
Битрейт : 448 Кбит/сек
Каналы : 6 каналов
Расположение каналов : Front: L C R, Side: L R, LFE
Частота : 48,0 КГц
Битовая глубина : 16 бит
Метод сжатия : С потерями
Размер потока : 466 Мбайт (8%)
Заголовок : Mihalev
Язык : Russian
Default : Да
Forced : Нет
Аудио #2
Идентификатор : 3
Формат : AC-3
Формат/Информация : Audio Coding 3
Расширение режима : CM (complete main)
Параметр Endianness формата : Big
Идентификатор кодека : A_AC3
Продолжительность : 2 ч. 25 м.
Вид битрейта : Постоянный
Битрейт : 448 Кбит/сек
Каналы : 6 каналов
Расположение каналов : Front: L C R, Side: L R, LFE
Частота : 48,0 КГц
Битовая глубина : 16 бит
Метод сжатия : С потерями
Размер потока : 466 Мбайт (8%)
Заголовок : Gavrilov
Язык : Russian
Default : Нет
Forced : Нет
Аудио #3
Идентификатор : 4
Формат : AC-3
Формат/Информация : Audio Coding 3
Расширение режима : CM (complete main)
Параметр Endianness формата : Big
Идентификатор кодека : A_AC3
Продолжительность : 2 ч. 25 м.
Вид битрейта : Постоянный
Битрейт : 448 Кбит/сек
Каналы : 6 каналов
Расположение каналов : Front: L C R, Side: L R, LFE
Частота : 48,0 КГц
Битовая глубина : 16 бит
Метод сжатия : С потерями
Размер потока : 466 Мбайт (8%)
Заголовок : Gorchakov
Язык : Russian
Default : Нет
Forced : Нет
Аудио #4
Идентификатор : 5
Формат : AC-3
Формат/Информация : Audio Coding 3
Расширение режима : CM (complete main)
Параметр Endianness формата : Big
Идентификатор кодека : A_AC3
Продолжительность : 2 ч. 25 м.
Вид битрейта : Постоянный
Битрейт : 448 Кбит/сек
Каналы : 6 каналов
Расположение каналов : Front: L C R, Side: L R, LFE
Частота : 48,0 КГц
Битовая глубина : 16 бит
Метод сжатия : С потерями
Размер потока : 466 Мбайт (8%)
Заголовок : Zhivov
Язык : Russian
Default : Нет
Forced : Нет
Аудио #5
Идентификатор : 6
Формат : AC-3
Формат/Информация : Audio Coding 3
Расширение режима : CM (complete main)
Параметр Endianness формата : Big
Идентификатор кодека : A_AC3
Продолжительность : 2 ч. 25 м.
Вид битрейта : Постоянный
Битрейт : 192 Кбит/сек
Каналы : 2 канала
Расположение каналов : Front: L R
Частота : 48,0 КГц
Битовая глубина : 16 бит
Метод сжатия : С потерями
Размер потока : 200 Мбайт (4%)
Заголовок : Pryamostanov
Язык : Russian
Default : Нет
Forced : Нет
Текст #1
Идентификатор : 7
Формат : UTF-8
Идентификатор кодека : S_TEXT/UTF8
Идентификатор кодека/Информация : UTF-8 Plain Text
Язык : Russian
Default : Нет
Forced : Нет
Текст #2
Идентификатор : 8
Формат : UTF-8
Идентификатор кодека : S_TEXT/UTF8
Идентификатор кодека/Информация : UTF-8 Plain Text
Язык : Russian
Default : Нет
Forced : Нет

log x.264

Сорри, отсутствует у предоставившего видео ряд morfyi. Только это:
x264 [info]: frame I:1403 Avg QP:15.50 size: 88237
x264 [info]: frame P:41366 Avg QP:18.07 size: 35762
x264 [info]: frame B:166480 Avg QP:19.83 size: 13292

Скриншоты

Яндекс.Метрика
Рейтинг@Mail.ru