Глубоко в сердце / Deep in the Heart (Кристофер Кэйн / Christopher Cain) [2012 г., драма, HDTVRip] DVO

 

Создавать темы 25-Мар-2014 02:44

-Глубоко в сердце / Deep in the Heart- Производство: США , 28 Entertainment
Год выпуска: 2012 г.
Жанр: драма
Продолжительность: 01:48:08
Мировая премьера: 17 февраля 2012
Перевод: Профессиональный (двухголосый, закадровый)-Режиссер: Кристофер Кэйн / Christopher Cain
В ролях: Джон Грайз, Илэйн Хендрикс, Вэл Килмер, Риган Уоллес, Джеймс Хейвен, Донни Боаз, Кэтерин Уиллис, Тара Хэзлвуд, Д.Б. Суини, Бо Смит-Описание:-В основу фильма положена реальная история Дика Воллрейса. После нескольких лет алкогольной зависимости, и как следствие потеря семьи, работы и надежд на будущее, к главному герою фильма приходит осознание того, что мерилом успеха является крепкая семья и любовь детей. С помощью сыновей он строит успешный бизнес и становится меценатом колледжа по программам 4Н и FFA предоставления стипендий для учащихся…-Качество видео: HDTVRip
Контейнер: AVI
Видео кодек: XviD
Аудио кодек: AC3
Видео: XviD build 73, 720x400 (1.80:1), 1732 kbps avg, 25 fps, 0.24 bit/pixel
Аудио: AC3 Dolby Digital, 192 kbps, 2/0 (L,R) ch, 48 kHz
Cубтитры: отсутствуют

Media Info

General
Complete name                            : D:\Deep.in.the_Heart.2012.P2.HDTVRip.1.46Gb.avi
Format                                   : AVI
Format/Info                              : Audio Video Interleave
File size                                : 1.46 GiB
Duration                                 : 1h 48mn
Overall bit rate                         : 1 934 Kbps
Writing application                      : VirtualDubMod 1.5.10.3 | www.virtualdub-fr.org || (build 2550/release)
Writing library                          : VirtualDubMod build 2550/release
Video
ID                                       : 0
Format                                   : MPEG-4 Visual
Format profile                           : Advanced [email protected]
Format settings, BVOP                    : 1
Format settings, QPel                    : No
Format settings, GMC                     : No warppoints
Format settings, Matrix                  : Custom
Codec ID                                 : XVID
Codec ID/Hint                            : XviD
Duration                                 : 1h 48mn
Bit rate                                 : 1 733 Kbps
Width                                    : 720 pixels
Height                                   : 400 pixels
Display aspect ratio                     : 16:9
Frame rate                               : 25.000 fps
Color space                              : YUV
Chroma subsampling                       : 4:2:0
Bit depth                                : 8 bits
Scan type                                : Progressive
Compression mode                         : Lossy
Bits/(Pixel*Frame)                       : 0.241
Stream size                              : 1.31 GiB (90%)
Writing library                          : XviD 73
Audio
ID                                       : 1
Format                                   : AC-3
Format/Info                              : Audio Coding 3
Mode extension                           : CM (complete main)
Format settings, Endianness              : Big
Codec ID                                 : 2000
Duration                                 : 1h 48mn
Bit rate mode                            : Constant
Bit rate                                 : 192 Kbps
Channel(s)                               : 2 channels
Channel positions                        : Front: L R
Sampling rate                            : 48.0 KHz
Bit depth                                : 16 bits
Compression mode                         : Lossy
Stream size                              : 149 MiB (10%)
Alignment                                : Split accross interleaves
Interleave, duration                     : 40 ms (1.00 video frame)
Interleave, preload duration             : 500 ms

Скриншоты

Яндекс.Метрика
Рейтинг@Mail.ru