Прощай, Париж / Adieu Paris (Франциска Бух)(2013,Драма) HDRip

 

Создавать темы 24-Мар-2014 01:24

-Прощай, Париж / Adieu Paris (2013) HDRip- Год выпуска: 2013
Производство: Германия, Люксембург, Франция
Жанр: Драма
Перевод: Многоголосый закадровый, профессиональный (НТВ+)
Дата мировой премьеры: 11 июля 2013
Дата российской премьеры: 19 сентября 2013, «Русский Репортаж»
Режиссер: Франциска Бух
Актеры: Джессика Шварц, Сандрин Боннэр, Ганс Вернер Мейер, Жерар Жюньо, Жан-Ив Бертело, Ина Вайсе, Туре Линдхардт, Массимо Бранкателли, Клод Бреда, Якоб Седертун
Описание фильма:
Аэропорт — место, где пересекаются судьбы. Банкир Фрэнк и продюсер Патрисиа слишком часто встречаются в парижском аэропорту, чтобы это можно было посчитать простой случайностью. Его карьера под угрозой — банковские махинации затронули его лично, она пытается смириться с трагедией — любовник находится в коме после тяжелой аварии и вряд ли вернется к нормальной жизни. Между тем, у каждого из них свои «странные утешения». Для Патрисии это жена любовника, с которой они разделяют горе, а для Фрэнка, как ни удивительно, знакомый мясник.

Продолжительность: 01:36:42
Качество видео: HDRip
Видеокодек: Xvid
Битрейт видео: ~1822 kb/s
Размер кадра: 720x304
Аудиокодек: AC3 2.0
Битрейт аудио: 192 kb/s
Сэмпл: Скачать

MediaInfo:

Общее
Полное имя : C:Торренты\Прощай, Париж.2013.HDRip.avi
Формат : AVI
Формат/Информация : Audio Video Interleave
Размер файла : 1,37 Гбайт
Продолжительность : 1 ч. 36 м.
Общий поток : 2024 Кбит/сек
Программа кодирования : VirtualDubMod 1.5.10.2 (build 2540/release)
Библиотека кодирования : VirtualDubMod build 2540/release
Видео
Идентификатор : 0
Формат : MPEG-4 Visual
Профиль формата : Advanced [email protected]
Параметр BVOP формата : 2
Параметр QPel формата : Нет
Параметр GMC формата : Без точки перехода
Параметр матрицы формата : Default (MPEG)
Идентификатор кодека : XVID
Идентификатор кодека/Подсказка : XviD
Продолжительность : 1 ч. 36 м.
Битрейт : 1822 Кбит/сек
Ширина : 720 пикселей
Высота : 304 пикселя
Соотношение сторон : 2,35:1
Частота кадров : 25,000 кадров/сек
Цветовое пространство : YUV
Субдискретизация насыщенности : 4:2:0
Битовая глубина : 8 бит
Тип развёртки : Прогрессивная
Метод сжатия : С потерями
Бит/(Пиксели*Кадры) : 0.333
Размер потока : 1,23 Гбайт (90%)
Библиотека кодирования : XviD 1.2.1 (UTC 2008-12-04)
Аудио
Идентификатор : 1
Формат : AC-3
Формат/Информация : Audio Coding 3
Расширение режима : CM (complete main)
Параметр Endianness формата : Big
Идентификатор кодека : 2000
Продолжительность : 1 ч. 36 м.
Вид битрейта : Постоянный
Битрейт : 192 Кбит/сек
Каналы : 2 канала
Расположение каналов : Front: L R
Частота : 48,0 КГц
Битовая глубина : 16 бит
Метод сжатия : С потерями
Размер потока : 133 Мбайт (9%)
Выравнивание : Разделение по промежуткам
Продолжительность промежутка : 40 мс. (1,00 видеокадр)
Время предзагрузки промежутка : 500 мс.
Скриншоты:
Яндекс.Метрика
Рейтинг@Mail.ru