[ Сегодня на трекере фрилич! Идет свободное скачивание без начисления Download ]

На Дерибасовской хорошая погода или на Брайтон-Бич опять идут дожди (Леонид Гайдай) [1992 г., комедия, DVD5, 576p] [(Реставрация КП 2008г)]

 

Создавать темы 23-Мар-2014 05:19

-На Дерибасовской хорошая погода или на Брайтон-Бич опять идут дожди / (Реставрация КП 2008г)-- Производство: Крупный план
Режиссер: Леонид Гайдай
Жанр: комедия
Год выпуска: 1992 г.
Продолжительность: 01:31:00
В ролях: Дмитрий Харатьян, Армен Джигарханян, Андрей Мягков, Келли МакГиллис, Елена Бушуева, Александр Лойе, Руслан Ахметов, Аркадий Инин, Мамука Кикалейшвили, Леонид Куравлев, Вячеслав Разбегаев, Муза Крепкогорская, Юрий Волынцев, Евгений Весник, Михаил Кокшенов-Описание: Историко-революционный фильм для детей младшего, старшего, зрелого и пожилого возраста, о тех далеких, незабываемых временах, когда еще были СССР, КПСС и КОЛБАСА по 2 руб. 20 коп.
Намечено проведение важных переговоров между президентами двух великих держав - СССР и США. Однако русская мафия, пустившая корни в Америке, ставит проведение столь важного саммита под угрозу. Тогда, временно объединившись в борьбе с преступными элементами, спецслужбы обоих государств - КГБ и ЦРУ - отправляют своих лучших агентов Федора Соколова и Мэри Стар на Брайтон-Бич. Именно там скрывается главный мафиози...
Фильм издан в "зеленой серии" КП. Сабов нет. Из допов - только фильмографии. Диск выложил "как есть"- с рекламой и предупреждениями. Перемотка, как водится, по главам.-Качество видео: DVD5
Контейнер: DVD Video
Стандарт разрешения: 576p
Видео кодек: MPEG2
Аудио кодек: AC3
Видео: PAL 4:3 (720x576) VBR, Битрейт 5800 Кбит/сек, BitRate_Nominal/String: 7 000 Кбит/сек, 25,000 кадров/сек
Аудио 1: Russian Dolby AC3, 6 ch 448 Кбит/сек 48,0 КГц
Аудио 2: Russian Dolby AC3, 1 ch 224 Кбит/сек 48,0 КГц

Media Info

Формат : MPEG-PS
Размер файла : 1024 Мбайт
Продолжительность : 21 м.
Общий поток : 6599 Кбит/сек
Видео
Идентификатор : 224 (0xE0)
Формат : MPEG Video
Версия формата : Version 2
Профиль формата : [email protected]
Параметр BVOP формата : Да
Параметр матрицы формата : Выборочная
Параметр GOP формата : M=3, N=12
Продолжительность : 21 м.
Битрейт : 5800 Кбит/сек
Ширина : 720 пикселей
Высота : 576 пикселей
Соотношение сторон : 4:3
Частота кадров : 25,000 кадров/сек
Стандарт вещания : PAL
Цветовое пространство : YUV
Субдискретизация насыщенности : 4:2:0
Битовая глубина : 8 бит
Тип развёртки : Чересстрочная
Порядок развёртки : Верхнее поле первое
Метод сжатия : С потерями
Бит/(Пиксели*Кадры) : 0.559
Временной код первого кадра : 00:00:00:01
Оригинал временного кода : Group of pictures header
Размер потока : 899 Мбайт (88%)
Аудио #1
Идентификатор : 189 (0xBD)-128 (0x80)
Формат : AC-3
Формат/Информация : Audio Coding 3
Расширение режима : CM (complete main)
Параметр Endianness формата : Big
Режим смешивания : DVD-Video
Продолжительность : 21 м.
Вид битрейта : Постоянный
Битрейт : 448 Кбит/сек
Каналы : 6 каналов
Расположение каналов : Front: L C R, Side: L R, LFE
Частота : 48,0 КГц
Битовая глубина : 16 бит
Метод сжатия : С потерями
Задержка видео : 348 мс.
Размер потока : 69,5 Мбайт (7%)
Аудио #2
Идентификатор : 189 (0xBD)-129 (0x81)
Формат : AC-3
Формат/Информация : Audio Coding 3
Расширение режима : CM (complete main)
Параметр Endianness формата : Big
Режим смешивания : DVD-Video
Продолжительность : 21 м.
Вид битрейта : Постоянный
Битрейт : 224 Кбит/сек
Каналы : 1 канал
Расположение каналов : Front: C
Частота : 48,0 КГц
Битовая глубина : 16 бит
Метод сжатия : С потерями
Задержка видео : 346 мс.
Размер потока : 34,7 Мбайт (3%)

Скриншот c названием фильма

Скриншоты

Яндекс.Метрика
Рейтинг@Mail.ru