[ Сегодня на трекере фрилич! Идет свободное скачивание без начисления Download ]

Афера по-американски / American Hustle (Дэвид О. Расселл / David O. Russell) [2013 г., драма, комедия, BDRip-AVC] Dub [лицензия] + Original (Eng) + Sub (Rus, Eng) [Jolly Roger]

 

Создавать темы 21-Мар-2014 02:47

-Афера по-американски / American Hustle- Год выпуска: 2013 г.
Производство: США
Жанр: драма, комедия
Продолжительность: 02:18:04
Перевод: Профессиональный (полное дублирование) [лицензия]
Оригинальный аудиопоток: английский
Режиссер: Дэвид О. Расселл / David O. Russell
В ролях: Кристиан Бэйл, Эми Адамс, Брэдли Купер, Дженнифер Лоуренс, Джереми Реннер, Луис С.К., Алессандро Нивола, Джек Хьюстон, Роберт Де Ниро, Майкл Пенья
Описание: В основе сюжета фильма реальная спецоперация, проводимая в конце 70-х — начале 80-х ФБР под кодовым названием Abscam. Она изначально была нацелена на расследование торговли краденым товаром. ФБР собиралось внедрить в преступную среду своих агентов под видом посредников, скупающих краденые шедевры для богатых коллекционеров Ближнего Востока. Впоследствии операция превратилась в изобличение коррупции на разных уровнях.Качество видео: BDRip-AVC
Контейнер: MKV
Видео кодек: H.264
Аудио кодек: AC3
Видео: MPEG4 Video (H264) 1056x440 23.976fps 1615 Kbps
Аудио 1: Dolby AC3 48000Hz 6ch 448 Kbps / Русский
Аудио 2: Dolby AC3 48000Hz stereo 192 Kbps / Английский
Субтитры: русские, английские (отключаемые)

Media Info / x.264

Log 2-nd pass

x264 [info]: using SAR=1/1
x264 [info]: using cpu capabilities: MMX2 SSE2Fast SSSE3 Cache64 SlowShuffle
x264 [info]: profile High, level 4.1
x264 [info]: frame I:1376 Avg QP:15.36 size: 72323
x264 [info]: frame P:43307 Avg QP:18.68 size: 21109
x264 [info]: frame B:153940 Avg QP:22.11 size: 4276
x264 [info]: consecutive B-frames: 1.6% 2.9% 10.4% 17.8% 19.8% 36.4% 6.2% 2.9% 2.0%
x264 [info]: mb I I16..4: 25.7% 41.1% 33.3%
x264 [info]: mb P I16..4: 5.0% 13.3% 2.8% P16..4: 39.8% 17.3% 11.6% 0.9% 0.2% skip: 9.1%
x264 [info]: mb B I16..4: 0.6% 1.4% 0.2% B16..8: 32.5% 8.9% 1.7% direct: 2.9% skip:51.8% L0:40.8% L1:40.2% BI:19.0%
x264 [info]: 8x8 transform intra:61.2% inter:59.1%
x264 [info]: direct mvs spatial:97.1% temporal:2.9%
x264 [info]: coded y,uvDC,uvAC intra: 67.3% 63.2% 32.7% inter: 17.1% 11.6% 2.2%
x264 [info]: i16 v,h,dc,p: 29% 17% 26% 28%
x264 [info]: i8 v,h,dc,ddl,ddr,vr,hd,vl,hu: 26% 15% 21% 5% 6% 8% 6% 7% 7%
x264 [info]: i4 v,h,dc,ddl,ddr,vr,hd,vl,hu: 25% 14% 20% 5% 8% 8% 7% 6% 6%
x264 [info]: i8c dc,h,v,p: 30% 28% 24% 18%
x264 [info]: Weighted P-Frames: Y:2.0% UV:0.7%
x264 [info]: ref P L0: 46.7% 13.5% 21.9% 7.5% 6.2% 3.8% 0.3% 0.0%
x264 [info]: ref B L0: 79.6% 12.7% 4.9% 2.2% 0.6%
x264 [info]: ref B L1: 94.3% 5.7%
x264 [info]: kb/s:1614.61
x264 [total]: encoded 198623 frames, 2.48 fps, 1614.61 kb/s
Общее
Уникальный идентификатор : 242929553468459184040421744259496332383 (0xB6C287B743D98E81849D514B9AF6CC5F)
Полное имя : G:\Afera.po.amerikanski.2013.H.264.BDRip-AVC.JRG.mkv
Формат : Matroska
Версия формата : Version 4 / Version 2
Размер файла : 2,18 Гбайт
Продолжительность : 2 ч. 18 м.
Общий поток : 2257 Кбит/сек
Название фильма : The Jolly Roger Release Group by
Дата кодирования : UTC 2014-03-19 16:09:48
Программа кодирования : mkvmerge v6.6.0 ('The Edge Of The In Between') built on Dec 1 2013 17:55:00
Библиотека кодирования : libebml v1.3.0 + libmatroska v1.4.1
Видео
Идентификатор : 1
Формат : AVC
Формат/Информация : Advanced Video Codec
Профиль формата : [email protected]
Параметр CABAC формата : Да
Параметр ReFrames формата : 6 кадров
Идентификатор кодека : V_MPEG4/ISO/AVC
Продолжительность : 2 ч. 18 м.
Битрейт : 1615 Кбит/сек
Ширина : 1056 пикселей
Высота : 440 пикселей
Соотношение сторон : 2,40:1
Режим частоты кадров : Постоянный
Частота кадров : 23,976 кадра/сек
Цветовое пространство : YUV
Субдискретизация насыщенности : 4:2:0
Битовая глубина : 8 бит
Тип развёртки : Прогрессивная
Бит/(Пиксели*Кадры) : 0.145
Размер потока : 1,52 Гбайт (70%)
Библиотека кодирования : x264 core 130 r2273 b3065e6
Настройки программы : cabac=1 / ref=6 / deblock=1:0:0 / analyse=0x3:0x133 / me=umh / subme=10 / psy=0 / mixed_ref=1 / me_range=24 / chroma_me=1 / trellis=2 / 8x8dct=1 / cqm=0 / deadzone=21,11 / fast_pskip=0 / chroma_qp_offset=0 / threads=3 / lookahead_threads=1 / sliced_threads=0 / nr=0 / decimate=1 / interlaced=0 / bluray_compat=0 / constrained_intra=0 / bframes=8 / b_pyramid=2 / b_adapt=2 / b_bias=0 / direct=3 / weightb=1 / open_gop=0 / weightp=2 / keyint=250 / keyint_min=23 / scenecut=40 / intra_refresh=0 / rc_lookahead=50 / rc=2pass / mbtree=1 / bitrate=1615 / ratetol=1.0 / qcomp=0.60 / qpmin=0 / qpmax=69 / qpstep=4 / cplxblur=20.0 / qblur=0.5 / ip_ratio=1.40 / aq=1:1.00
Язык : English
Default : Да
Forced : Нет
Аудио #1
Идентификатор : 2
Формат : AC-3
Формат/Информация : Audio Coding 3
Расширение режима : CM (complete main)
Параметр Endianness формата : Big
Идентификатор кодека : A_AC3
Продолжительность : 2 ч. 18 м.
Вид битрейта : Постоянный
Битрейт : 448 Кбит/сек
Каналы : 6 каналов
Расположение каналов : Front: L C R, Side: L R, LFE
Частота : 48,0 КГц
Битовая глубина : 16 бит
Метод сжатия : С потерями
Размер потока : 442 Мбайт (20%)
Язык : Russian
Default : Да
Forced : Нет
Аудио #2
Идентификатор : 3
Формат : AC-3
Формат/Информация : Audio Coding 3
Расширение режима : CM (complete main)
Параметр Endianness формата : Big
Идентификатор кодека : A_AC3
Продолжительность : 2 ч. 18 м.
Вид битрейта : Постоянный
Битрейт : 192 Кбит/сек
Каналы : 2 канала
Расположение каналов : Front: L R
Частота : 48,0 КГц
Битовая глубина : 16 бит
Метод сжатия : С потерями
Размер потока : 190 Мбайт (9%)
Язык : English
Default : Нет
Forced : Нет
Текст #1
Идентификатор : 4
Формат : UTF-8
Идентификатор кодека : S_TEXT/UTF8
Идентификатор кодека/Информация : UTF-8 Plain Text
Язык : Russian
Default : Нет
Forced : Нет
Текст #2
Идентификатор : 5
Формат : UTF-8
Идентификатор кодека : S_TEXT/UTF8
Идентификатор кодека/Информация : UTF-8 Plain Text
Язык : English
Default : Нет
Forced : Нет

Скриншоты

Создавать темы 13-Апр-2014 17:29 (спустя 23 дня)

так себе комедия :)
Яндекс.Метрика
Рейтинг@Mail.ru