Людоед (2 серии) (Геннадий Земель) [1991 г., драма, VHSRip]

 

Создавать темы 18-Мар-2014 21:59

-Людоед (2 серии)-- Производство: СССР, «Катарис»
Режиссер: Геннадий Земель
Жанр: драма
Год выпуска: 1991 г.
Продолжительность: 2:47:53
В ролях: Владимир Талашко, Герман Качин, Петр Дербенев, Олег Гущин, Виктор Гавришев, Димаш Ахимов, Руслан Наурбиев, Федор Любецкий-Описание: Казахстан. 1954 год. Медные рудники. Лагеря с заключенными, которые на этих копях надрываются. В центре сюжета - восстание, которое наивные "зэки" поднимают, протестуя против бесчеловечного обращения с ними, против изнурительного рабочего дня, против голодного существования... С помощью бунта они хотят что-то изменить в своей рабской жизни. Такие идеалистические требования политзаключенных вызывают вполне закономерную реакцию властей: жестокое подавление восстания и последующий террор, который обрушивает администрация на непокорных, даже и не помышлявших замахнуться на саму систему...-Качество видео: VHSRip
Контейнер: AVI
Видео кодек: XviD
Аудио кодек: MP3
Серия 1 Видео: 688x528; 977 Kbps; 25,00 fps; 0,108 bit/pixel
Серия 2 Видео: 688x528; 1118 Kbps; 25,00 fps; 0,123 bit/pixel
Аудио: 128Kbps; 44,1 Hz; 2ch
Cубтитры: английские
Формат субтитров: hardsub (неотключаемые)

Media Info

1 серия
Общее
Полное имя : E:\Torrent\Ludoed_[Pirat.ca].torrent\01 серия.avi
Формат : AVI
Формат/Информация : Audio Video Interleave
Размер файла : 707 Мбайт
Продолжительность : 1 ч. 28 м.
Общий поток : 1114 Кбит/сек
Библиотека кодирования : VirtualDub-MPEG2 build 24600/release
Видео
Идентификатор : 0
Формат : MPEG-4 Visual
Параметр BVOP формата : 1
Параметр QPel формата : Нет
Параметр GMC формата : Без точки перехода
Параметр матрицы формата : Default (H.263)
Режим смешивания : Сжатый битовый поток
Идентификатор кодека : DX50
Идентификатор кодека/Подсказка : DivX 5
Продолжительность : 1 ч. 28 м.
Битрейт : 977 Кбит/сек
Ширина : 688 пикселей
Высота : 528 пикселей
Соотношение сторон : 4:3
Частота кадров : 25,000 кадров/сек
Цветовое пространство : YUV
Субдискретизация насыщенности : 4:2:0
Битовая глубина : 8 бит
Тип развёртки : Прогрессивная
Метод сжатия : С потерями
Бит/(Пиксели*Кадры) : 0.108
Размер потока : 619 Мбайт (88%)
Библиотека кодирования : DivX 5.2.1 Alpha (UTC 2004-09-08)
Аудио
Идентификатор : 1
Формат : MPEG Audio
Версия формата : Version 1
Профиль формата : Layer 3
Идентификатор кодека : 55
Идентификатор кодека/Подсказка : MP3
Продолжительность : 1 ч. 28 м.
Вид битрейта : Постоянный
Битрейт : 128 Кбит/сек
Каналы : 2 канала
Частота : 44,1 КГц
Метод сжатия : С потерями
Размер потока : 81,2 Мбайт (11%)
Выравнивание : Разделение по промежуткам
Продолжительность промежутка : 40 мс. (1,00 видеокадр)
Время предзагрузки промежутка : 500 мс.
2 серия
Общее
Полное имя : E:\Torrent\Ludoed_[Pirat.ca].torrent\02 серия.avi
Формат : AVI
Формат/Информация : Audio Video Interleave
Размер файла : 713 Мбайт
Продолжительность : 1 ч. 19 м.
Общий поток : 1255 Кбит/сек
Библиотека кодирования : VirtualDub-MPEG2 build 24600/release
Видео
Идентификатор : 0
Формат : MPEG-4 Visual
Параметр BVOP формата : 1
Параметр QPel формата : Нет
Параметр GMC формата : Без точки перехода
Параметр матрицы формата : Default (H.263)
Режим смешивания : Сжатый битовый поток
Идентификатор кодека : DX50
Идентификатор кодека/Подсказка : DivX 5
Продолжительность : 1 ч. 19 м.
Битрейт : 1118 Кбит/сек
Ширина : 688 пикселей
Высота : 528 пикселей
Соотношение сторон : 4:3
Частота кадров : 25,000 кадров/сек
Цветовое пространство : YUV
Субдискретизация насыщенности : 4:2:0
Битовая глубина : 8 бит
Тип развёртки : Прогрессивная
Метод сжатия : С потерями
Бит/(Пиксели*Кадры) : 0.123
Размер потока : 635 Мбайт (89%)
Библиотека кодирования : DivX 5.2.1 Alpha (UTC 2004-09-08)
Аудио
Идентификатор : 1
Формат : MPEG Audio
Версия формата : Version 1
Профиль формата : Layer 3
Идентификатор кодека : 55
Идентификатор кодека/Подсказка : MP3
Продолжительность : 1 ч. 19 м.
Вид битрейта : Постоянный
Битрейт : 128 Кбит/сек
Каналы : 2 канала
Частота : 44,1 КГц
Метод сжатия : С потерями
Задержка видео : 23 мс.
Размер потока : 72,7 Мбайт (10%)
Выравнивание : Разделение по промежуткам
Продолжительность промежутка : 40 мс. (1,00 видеокадр)
Время предзагрузки промежутка : 500 мс.

Скриншоты

Яндекс.Метрика
Рейтинг@Mail.ru