Двойная жизнь Камиллы / Camille redouble (Ноэми Львовски / Noémie Lvovsky) [2012 г., драма, комедия, HDRip] MVO

 

Создавать темы 18-Мар-2014 02:34

-Двойная жизнь Камиллы / Camille redouble- Производство: Франция , F Comme Film, Ciné@, Gaumont
Год выпуска: 2012 г.
Жанр: драма, комедия
Продолжительность: 01:55:13
Мировая премьера: 25 мая 2012, «Каннский кинофестиваль»
Дата выхода DVD: 4 марта 2014, «Парадиз / Активижен»
Перевод: Профессиональный (многоголосый, закадровый)-Режиссер: Ноэми Львовски / Noémie Lvovsky
В ролях: Ноэми Львовски, Самир Гесми, Жюдит Шемла, Индия Хэйр, Жюлия Фор, Иоланда Моро, Мишель Вюйермоз, Дени Подалидес, Жан-Пьер Лео, Венсан Лакост-Описание:-В центре фильма Эрик и 16-летняя Камилла. Они страстно влюбляются друг в друга, и в молодом возрасте у них рождается дочь. 25 лет спустя Эрик уходит от Камиллы к молодой женщине. Вечером 31 декабря Камилла внезапно попадает в прошлое. Ей снова 16. Она заново «открывает» своих родителей, своих друзей, свою молодость и Эрика. Будет ли она избегать его или попробует изменить их жизни? Влюбится ли она в него снова, если знает, что их любви через 25 лет придёт конец?-Качество видео: HDRip
Контейнер: AVI
Видео кодек: XviD
Аудио кодек: AC3
Видео: XviD build 73, 720x384 (1.88:1), 1416 kbps avg, 24.000 fps, 0.21 bit/pixel
Аудио: AC3 Dolby Digital, 384 kbps, 6 ch, 48 kHz
Cубтитры: отсутствуют

Media Info

General
Complete name : C:\Users\Admin\Desktop\Camille.redouble.2012.HDRip.MVO.avi
Format : AVI
Format/Info : Audio Video Interleave
File size : 1.46 GiB
Duration : 1h 55mn
Overall bit rate : 1 810 Kbps
Writing application : VirtualDubModRus 1.5.10.2 (build 2542/release)
Writing library : VirtualDubMod build 2542/release
Video
ID : 0
Format : MPEG-4 Visual
Format profile : Advanced [email protected]
Format settings, BVOP : 1
Format settings, QPel : No
Format settings, GMC : No warppoints
Format settings, Matrix : Custom
Codec ID : XVID
Codec ID/Hint : XviD
Duration : 1h 55mn
Bit rate : 1 417 Kbps
Width : 720 pixels
Height : 384 pixels
Display aspect ratio : 1.85:1
Frame rate : 24.000 fps
Color space : YUV
Chroma subsampling : 4:2:0
Bit depth : 8 bits
Scan type : Progressive
Compression mode : Lossy
Bits/(Pixel*Frame) : 0.214
Stream size : 1.14 GiB (78%)
Writing library : XviD 73
Audio
ID : 1
Format : AC-3
Format/Info : Audio Coding 3
Mode extension : CM (complete main)
Format settings, Endianness : Big
Codec ID : 2000
Duration : 1h 55mn
Bit rate mode : Constant
Bit rate : 384 Kbps
Channel(s) : 6 channels
Channel positions : Front: L C R, Side: L R, LFE
Sampling rate : 48.0 KHz
Bit depth : 16 bits
Compression mode : Lossy
Stream size : 316 MiB (21%)
Alignment : Split accross interleaves
Interleave, duration : 42 ms (1.00 video frame)
Interleave, preload duration : 500 ms

Скриншоты

Яндекс.Метрика
Рейтинг@Mail.ru